<?xml version="1.0" standalone="no"?>
<!DOCTYPE svg PUBLIC "-//W3C//DTD SVG 1.1//EN" "http://www.w3.org/Graphics/SVG/1.1/DTD/svg11.dtd" >
<svg xmlns="http://www.w3.org/2000/svg">
  <metadata>Created by iconfont</metadata>
  <defs>
  <font id="iconfont" horiz-adv-x="1024">
    <font-face
      font-family="iconfont"
      font-weight="400"
      font-stretch="normal"
      units-per-em="1024"
      ascent="896"
      descent="-128"
    />
      <missing-glyph />
      
      <glyph glyph-name="chongwu" unicode="&#59164;" d="M654.1824 774.4c70.4 0 131.6352-39.2192 163.072-97.024l134.2464-187.2896 0.768-1.0752 0.6656-1.1776a134.4 134.4 0 0 0-46.336-184.2176h-0.0512l-66.7648-39.8848V179.2a185.6 185.6 0 0 0-185.6-185.6h-307.2A185.6 185.6 0 0 0 161.3824 179.2v54.528l-76.8 45.824a134.4 134.4 0 0 0-46.336 184.2688l0.512 0.8192 0.512 0.8704L182.528 674.816a185.5488 185.5488 0 0 0 164.4544 99.584h307.2z m-307.2-64c-42.6496 0-80.128-22.016-101.888-55.1936a31.8464 31.8464 0 0 0-3.6864-7.68l-3.4816-5.12c-7.9872-16.1792-12.544-34.304-12.544-53.6064v-409.6a121.6 121.6 0 0 1 121.6-121.6h307.2A121.6 121.6 0 0 1 775.7824 179.2V588.8c0 19.968-4.9664 38.7584-13.5168 55.3984l-18.432 25.8048a31.8976 31.8976 0 0 0-2.6624 3.6352 121.1904 121.1904 0 0 1-87.04 36.7616h-307.2zM512 384a51.2 51.2 0 0 0 32.768-90.5216c5.376-54.784 42.7008-82.2784 69.632-82.2784a32 32 0 1 0 0-64c-40.7552 0-77.6192 21.76-102.4 56.4224-24.832-34.6624-61.696-56.4224-102.4-56.4224a32 32 0 0 0 0 64c26.88 0 64.2048 27.4944 69.632 82.2784A51.2 51.2 0 0 0 512 384z m-419.072 46.592c-19.6096-33.28-8.704-76.288 24.576-96.1536l43.8784-26.1632V530.5344L92.928 430.592z m746.8544-92.3648l33.9456 20.2752c33.0752 19.8144 44.032 62.464 24.6784 95.744l-58.624 81.8688v-197.888zM336.9984 486.4a42.7008 42.7008 0 1 0 0-85.4528 42.7008 42.7008 0 0 0 0 85.4528z m345.6 0a42.7008 42.7008 0 1 0 0-85.4528 42.7008 42.7008 0 0 0 0 85.4528z"  horiz-adv-x="1024" />
      
      <glyph glyph-name="jiazhuang" unicode="&#59168;" d="M716.8 825.6c45.9776 0 83.2-37.2736 83.2-83.2v-32H870.4c31.7952 0 57.6-25.8048 57.6-57.6V460.8c0-31.7952-25.8048-57.6-57.6-57.6h-326.4v-115.2h44.8c17.664 0 32-14.336 32-32v-204.8c0-45.9776-37.2224-83.2-83.2-83.2h-51.2A83.2 83.2 0 0 0 403.2 51.2v204.8c0 17.664 14.336 32 32 32h44.8V409.6c0 31.7952 25.8048 57.6 57.6 57.6h326.4v179.2h-64V640c0-45.9264-37.2224-83.2-83.2-83.2H204.8A83.2 83.2 0 0 0 121.6 640V742.4c0 45.9264 37.2736 83.2 83.2 83.2h512zM467.2 51.2c0-10.5984 8.6016-19.2 19.2-19.2h51.2a19.2 19.2 0 0 1 19.2 19.2v172.8h-89.6V51.2zM204.8 761.6A19.2 19.2 0 0 1 185.6 742.4v-102.4c0-10.5984 8.6016-19.2 19.2-19.2h512A19.2 19.2 0 0 1 736 640V742.4A19.2 19.2 0 0 1 716.8 761.6H204.8z"  horiz-adv-x="1024" />
      
      <glyph glyph-name="wenwan" unicode="&#59199;" d="M665.4464 800c23.7568 0 47.2576-11.9808 59.392-34.6112l0.3072-0.512c9.472-18.5344 7.8848-36.7616 1.1264-51.712-5.8368-12.6464-15.36-22.6304-21.7088-29.1328-27.4944-28.7744-51.3536-54.784-50.2784-107.8784v-0.0512c0.6144-30.72 7.168-52.48 15.872-69.12 6.7072-12.6976 15.2064-23.4496 25.088-33.5872l10.2912-10.0352 0.3072-0.3072c3.8912-3.6864 10.3424-7.3728 24.9856-15.104h0.1024v-0.0512c24.7296-13.1072 61.5424-32 87.6032-70.9632 26.624-39.7312 39.2192-95.3856 29.184-176.7936v-0.2048c-10.3424-79.9232-54.5792-147.8656-112.6912-200.96-23.7056-21.6064-54.272-30.976-83.6096-30.976h-278.528c-29.3888 0-59.9552 9.3696-83.6608 30.976-54.4768 49.7664-96.768 112.5888-110.3872 186.112l-2.304 14.848c-10.496 81.2544 1.8944 137.0112 28.5184 176.7936 25.9072 38.8096 62.464 57.6512 87.04 70.656l16.6912 9.3696c4.096 2.4064 6.9632 4.4544 9.1136 6.3488 14.2336 13.1584 26.368 26.624 35.2256 43.52 8.8064 16.7936 15.36 38.6048 15.9232 69.12 1.0752 53.504-22.6816 79.104-50.432 108.4416l-0.3584 0.3072-0.3072 0.4096c-4.608 5.2224-14.5408 15.5648-20.3776 27.648a56.832 56.832 0 0 0 0.6656 52.3264l0.256 0.512a66.7648 66.7648 0 0 0 59.392 34.6112h307.5584zM365.6704 727.552c29.0816-30.7712 69.0176-72.8064 67.3792-153.088-0.768-39.5776-9.472-71.168-23.2448-97.536-13.6704-26.0608-31.5904-45.312-48.5376-60.9792l-0.3072-0.3072c-11.264-10.0864-26.6752-18.2272-38.1952-24.4736l-0.4096-0.2048c-25.4464-13.4144-48.128-25.9072-64.0512-49.7664-15.36-23.04-27.4944-61.7472-18.2784-133.0176l1.792-11.3152c10.4448-56.4224 43.3664-107.4688 90.624-150.528 9.9328-9.1136 24.2176-14.336 40.448-14.336h278.528c16.1792 0 30.464 5.2224 40.448 14.336 50.3808 45.9264 84.48 100.9664 92.3648 161.8432 8.7552 71.424-3.3792 110.08-18.8416 133.1712-16.0256 23.9104-38.656 36.352-64.4608 50.0736-11.9296 6.2976-27.4944 14.1312-39.168 25.2416-16.7936 15.5648-34.6112 34.6112-48.2304 60.4672a207.3088 207.3088 0 0 0-22.5792 83.1488l-0.6656 14.592c-1.6384 80.384 38.7584 122.7776 68.096 153.4464l0.3584 0.3584a95.232 95.232 0 0 1 6.656 7.2704v0.0512H358.2464c1.9968-2.4576 4.1984-4.864 7.424-8.448z"  horiz-adv-x="1024" />
      
      <glyph glyph-name="yule" unicode="&#59182;" d="M656.7936 748.8c48.4864 0 92.3136-9.6256 128.9216-30.0544l13.0048-7.8848c25.2928-16.6912 46.2848-38.7584 62.8224-65.3824l7.8848-13.6704 6.8096-13.7728c18.2272-38.9632 52.224-124.5184 77.824-214.9888 19.5072-69.376 31.0272-130.048 33.792-181.248 2.6624-50.8416-3.072-95.232-20.8896-129.7408v-0.0512c-19.2512-37.12-51.3536-61.2352-91.8528-68.7104l-8.192-1.2288c-53.248-6.7584-100.0448-1.6896-139.9808 18.3808l-7.936 4.2496c-36.352 20.5824-59.136 49.664-77.4656 72.8064-17.6128 22.2208-29.2864 36.352-45.6704 45.9264a26.4192 26.4192 0 0 1-13.056 2.56H441.6a27.5968 27.5968 0 0 1-13.312-2.56c-13.6192-7.7312-25.088-18.432-38.0416-32.1024l-13.568-14.7968c-18.176-20.1216-40.5504-45.1072-71.168-64.3584-31.488-19.8656-70.4512-32.9728-121.7024-32.9728-6.7584 0-13.7216 0.256-20.8896 0.7168l-22.1184 2.1504a127.2832 127.2832 0 0 0-99.9936 69.9392c-17.92 34.56-23.6032 78.9504-20.9408 129.7408 2.7136 51.2 14.1824 111.9232 33.792 181.2992 29.1328 103.3216 69.3248 200.3968 84.6336 228.864 20.0704 37.376 48.128 67.0208 83.5584 86.8352 36.7104 20.5312 80.64 30.0544 129.024 30.0544h305.92z m-305.92-64c-40.2944 0-72.7552-7.936-97.6896-21.9136h-0.1024c-23.8592-13.312-43.5712-33.6384-58.4704-61.2864-10.8544-20.224-41.7792-93.44-68.352-178.7392l-11.0592-37.2224c-18.7904-66.7136-29.0304-122.4192-31.4368-167.2704-2.4064-45.312 3.3792-76.6464 13.824-96.9216a63.488 63.488 0 0 1 51.2-35.8912l18.3296-1.792c5.8368-0.4096 11.4176-0.5632 16.6912-0.5632 39.3728 0 66.4576 9.7792 87.6032 23.0912 22.016 13.8752 38.912 32.256 57.7536 53.1456l14.08 15.4112c14.7456 15.7184 32 32.0512 53.504 44.1856 15.1552 8.6016 31.3344 10.9056 44.8512 10.9056h141.2096c13.4656 0 30.0032-2.2016 45.4144-11.264 28.3648-16.64 47.104-40.7552 63.488-61.44 18.944-23.8592 34.7648-43.2128 58.8288-56.832l10.1888-5.12c24.7808-11.008 56.3712-15.0528 98.2016-9.728l8.448 1.536c18.944 4.4544 33.1264 15.872 42.7008 34.304 10.4448 20.2752 16.2304 51.712 13.824 96.9728-2.4064 44.8512-12.6976 100.5568-31.488 167.2704-28.3136 100.4032-67.072 192.768-79.4624 216.0128l-5.7344 9.984a146.1248 146.1248 0 0 1-43.8272 45.8752l-8.8064 5.3248c-25.0368 13.9776-57.5488 21.9648-97.792 21.9648H350.8736zM742.4512 384a51.1488 51.1488 0 1 0-0.1024-102.2976A51.1488 51.1488 0 0 0 742.4 384zM358.4 569.6c17.664 0 31.9488-14.336 31.9488-32v-70.4H460.8a32 32 0 0 0 0-64H390.4V332.8a32 32 0 0 0-64 0V403.2H256a32 32 0 1 0 0 64h70.4V537.6c0 17.664 14.336 32 32 32zM640 537.6a51.2 51.2 0 1 0-0.0512-102.4512A51.2 51.2 0 0 0 640 537.6z"  horiz-adv-x="1024" />
      
      <glyph glyph-name="jiulei" unicode="&#59185;" d="M376.9344 800c43.2128 0 81.408-33.4848 81.408-78.592V607.744a29.696 29.696 0 0 1 6.1952-17.92l4.7104-4.864 0.2048-0.2048a209.3056 209.3056 0 0 0 73.7792-141.056l0.1024-0.9216c0.1024-0.7168 0.3584-2.4064 0.512-4.3008 0.1536-2.3552 0.1536-4.5568 0.1536-5.2736v-387.4304c0-44.7488-37.7344-77.824-80.4864-77.824h-260.608c-43.1616 0-81.3056 33.4848-81.3056 78.592V428.3392c0 60.1088 27.392 117.1456 74.1376 156.5184l0.2048 0.1536a30.0544 30.0544 0 0 1 10.9056 22.784V721.408c0 45.1072 38.144 78.592 81.3568 78.592h88.7296z m504.4224-147.2c25.7536 0 46.6432-20.8896 46.6432-46.6432v-164.5568a160 160 0 0 0-128-156.7744v-246.6816H896a32 32 0 0 0 0-64h-256a32 32 0 1 0 0 64h96v246.6816a160 160 0 0 0-128 156.7744V606.1568c0 25.7536 20.8896 46.6432 46.6432 46.6432h226.7136zM288.2048 736c-11.3664 0-17.3568-8.192-17.3568-14.592V607.744c0-27.648-12.544-54.1696-34.048-72.0384-32.768-27.648-51.2-67.072-51.2-107.4176v-381.7472c0-6.3488 5.9904-14.592 17.3568-14.592h260.5568c10.9056 0 16.4864 7.8336 16.4864 13.824v388.096l-0.0512 0.3584-0.2048 1.4848a145.3056 145.3056 0 0 1-51.6096 100.1472 94.0544 94.0544 0 0 0-33.792 71.8848V721.408c0 6.3488-6.0416 14.592-17.408 14.592H288.256z m383.7952-294.4a96 96 0 0 1 192 0V588.8h-192v-147.2z"  horiz-adv-x="1024" />
      
      <glyph glyph-name="jiankang" unicode="&#59186;" d="M703.1808 747.52c137.2672 0 249.088-110.0288 249.1392-246.4256 0-1.536-0.1536-3.7888-0.2048-5.632 0-0.6656 0.2048-1.3824 0.2048-2.0992-0.0512-149.2992-125.6448-346.9312-413.9008-516.9152h-0.1024a52.1728 52.1728 0 0 0-52.6336 0c-98.048 57.344-200.4992 134.656-278.8352 222.5664-77.824 87.296-135.168 188.928-135.168 294.3488 0 0.7168 0.1536 1.4336 0.2048 2.1504-0.0512 1.792-0.2048 4.0448-0.2048 5.632C71.68 637.44 183.552 747.4176 320.8192 747.52c76.8 0 145.4592-34.4576 191.1808-88.5248A249.7024 249.7024 0 0 0 703.1808 747.52z m0-61.44a188.2112 188.2112 0 0 1-164.352-95.6416 30.72 30.72 0 0 0-53.6064 0A188.16 188.16 0 0 1 320.8192 686.08C216.7296 686.08 133.12 602.88 133.12 501.0944c0-2.1504 0.1024-1.7408 0.256-6.6048 0.0512-1.1264-0.1536-2.2528-0.2048-3.3792 0.8192-82.8416 46.6432-169.472 119.552-251.2384C324.5056 159.3344 419.4816 87.04 512 32.3072c275.4048 163.7888 377.344 342.272 378.7776 458.5984-0.0512 1.1776-0.2048 2.4064-0.1536 3.584 0.1536 4.864 0.256 4.4544 0.256 6.656 0 101.7344-83.6096 184.9344-187.6992 184.9344zM434.5856 518.4a32 32 0 0 0 29.8496-18.9952l72.6016-163.3792 47.9744 111.7696 1.9456 3.8912a32 32 0 0 0 54.0672 1.28l41.728-62.5664H742.4a32 32 0 1 0 0-64H665.6a32.0512 32.0512 0 0 0-26.624 14.2336l-18.432 27.648-53.5552-124.928a32 32 0 0 0-58.624-0.3584l-71.68 161.1776-22.9888-57.6512a32 32 0 0 0-29.696-20.1216h-102.4a32 32 0 1 0 0 64h80.7424l43.1616 107.8784 2.048 4.2496a32 32 0 0 0 27.0336 15.872z"  horiz-adv-x="1024" />
      
      <glyph glyph-name="wanju" unicode="&#59187;" d="M638.7712 794.6752a248.832 248.832 0 0 0 161.024-438.4256c1.024-2.5088 1.9456-5.12 2.3552-7.8848 1.3824-9.216 5.376-18.2272 11.8784-28.3648 3.328-5.12 7.0656-10.1376 11.1616-15.6672 3.9424-5.2736 8.5504-11.4176 12.6976-17.408 8.0896-11.776 17.92-28.0576 19.6096-47.9744 1.8432-21.76-6.2464-41.8304-21.8112-60.16-30.72-36.3008-68.5056-43.8272-95.2832-49.4592-21.2992-4.5056-34.7136-7.7824-45.2096-15.8208a89.6 89.6 0 0 0-175.4112-34.304A89.6 89.6 0 1 0 665.6 170.752c21.6064 13.312 44.3392 17.5616 61.5936 21.1968 26.88 5.632 44.3904 10.1376 59.6992 28.2112 7.4752 8.8576 6.8608 12.6976 6.8096 13.3632-0.2048 2.56-1.7408 7.2704-8.4992 17.0496-3.2768 4.7616-6.8608 9.472-11.264 15.4624a342.528 342.528 0 0 0-13.6704 19.3024 149.504 149.504 0 0 0-16.896 34.7648 247.8592 247.8592 0 0 0-178.688-11.8784l-114.2784-139.6224c-6.144-7.5264-10.752-16.2816-13.312-25.6512l-22.016-78.5408a124.672 124.672 0 0 0-199.0656-62.8736l-33.8944 27.6992a124.7232 124.7232 0 0 0 22.3232 207.616l72.704 37.0176c8.6016 4.4544 16.2816 10.6496 22.4768 18.176l116.5824 142.4896a247.7568 247.7568 0 0 0-26.3168 111.3088c0 40.704 9.8816 79.1552 27.1872 113.1008a181.8112 181.8112 0 0 0-13.824 5.0688 341.504 341.504 0 0 0-21.4016 9.9328c-6.656 3.328-12.032 6.0928-17.2544 8.448-10.8032 4.9152-15.7184 5.5296-18.2272 5.2736-0.7168 0-4.608-0.1024-11.9808-9.0112-15.0528-18.3296-16.384-36.352-17.2032-63.744-0.512-17.6128-0.6656-40.6528-9.8816-64.1536a89.6 89.6 0 0 0-61.6448-161.6896 89.7536 89.7536 0 0 0-1.1264 178.5856c7.0144 12.1344 8.0384 26.112 8.704 49.1008 0.8192 27.3408 1.536 65.8432 31.744 102.5536 15.3088 18.5344 33.6384 30.1056 55.3472 32.1536 19.968 1.8432 37.7344-4.9152 50.688-10.752 6.656-3.072 13.5168-6.5536 19.4048-9.472 6.144-3.072 11.776-5.8368 17.408-8.192 11.008-4.5568 20.48-6.8608 29.7984-6.656a248.1152 248.1152 0 0 0 181.1456 78.336z m-289.6896-543.232c-11.776-14.336-26.368-26.112-42.9568-34.56l-72.6016-37.12a60.6208 60.6208 0 0 1-10.8544-100.9664l33.8944-27.7504a60.7232 60.7232 0 0 1 96.8704 30.6176l21.9648 78.5408a134.656 134.656 0 0 0 25.4976 48.9472l103.936 126.976a250.0096 250.0096 0 0 0-51.0976 43.3152l-104.6528-128z m250.0608-123.0336a25.7536 25.7536 0 1 1 13.9776-49.5104 25.7536 25.7536 0 0 1-13.9776 49.5104z m39.6288 602.2656a184.832 184.832 0 1 1 0-369.664 184.832 184.832 0 0 1 0 369.664z m-381.952-226.6624a25.7536 25.7536 0 1 1-4.9152-51.3024 25.7536 25.7536 0 0 1 4.9664 51.3024z"  horiz-adv-x="1024" />
      
      <glyph glyph-name="gehu" unicode="&#59188;" d="M417.6896 818.0736a32 32 0 0 0 0-64H359.0144v-38.7072c0-0.3584-0.1536-0.6656-0.1536-1.024a121.856 121.856 0 0 0 86.8352-116.736v-37.4784c0-2.816-0.512-5.5296-1.1776-8.192a236.9024 236.9024 0 0 0 134.2976-213.504v-282.9824a108.9024 108.9024 0 0 0-108.8512-108.8H177.92a108.8512 108.8512 0 0 0-108.8512 108.8v282.9312A236.8512 236.8512 0 0 0 203.264 551.936a31.8464 31.8464 0 0 0-1.2288 8.2432v37.5296c0 57.2928 39.6288 105.2672 92.928 118.272v38.144h-52.224l-52.4288-22.1184a32.0512 32.0512 0 0 0-24.832 58.9824l58.4192 24.576 6.0416 1.8944a32.2048 32.2048 0 0 0 6.3488 0.6656h181.3504z m376.6272-181.248c52.3776 0 94.8736-42.5472 94.8736-94.976v-60.16a108.8 108.8 0 0 0 65.1264-99.584v-326.6048a108.8 108.8 0 0 0-108.8-108.8h-102.4a108.8 108.8 0 0 0-108.8 108.8v326.6048c0 44.544 26.7264 82.7392 65.024 99.584V541.9008c0 52.4288 42.5472 94.9248 94.976 94.9248z m-488.448-125.6448A172.8 172.8 0 0 1 133.12 338.432v-282.9312c0-24.7296 20.0704-44.8 44.8-44.8h292.0448a44.9024 44.9024 0 0 1 44.8512 44.8v282.9312A172.8512 172.8512 0 0 1 342.016 511.1808h-36.096z m437.248-84.2752a44.8 44.8 0 0 1-44.8-44.8v-326.6048c0-24.7296 20.0192-44.8 44.8-44.8h102.4a44.8 44.8 0 0 1 44.8 44.8v326.6048a44.8512 44.8512 0 0 1-44.8 44.8h-102.4z m-328.4992-169.1648c17.664 0 32-14.336 32-32v-122.5216c0-17.664-14.336-32-32-32H233.2672a32 32 0 0 0-32 32v122.5216c0 17.664 14.336 32 32 32h181.3504z m377.344-54.3232c17.7152 0 32.0512-14.336 32.0512-32v-68.1984a32 32 0 0 0-64 0v68.1984c0 17.664 14.336 32 32 32zM265.3184 135.168h117.3504v58.5216H265.216v-58.5216z m529.0496 437.5552a30.976 30.976 0 0 1-30.976-30.8736v-50.9952h61.8496v50.944a30.976 30.976 0 0 1-30.8736 30.9248zM323.8912 655.5136a57.856 57.856 0 0 1-57.8048-57.856v-25.7536a238.592 238.592 0 0 0 39.8336 3.328h36.096c13.5168 0 26.7776-1.1264 39.68-3.328v25.8048c0 31.8976-25.856 57.8048-57.8048 57.8048z"  horiz-adv-x="1024" />
      
      <glyph glyph-name="tongzhuang" unicode="&#59195;" d="M429.1584 774.4c16.384 0 34.304-8.192 44.032-25.856l0.0512 0.0512 41.1648-70.9632 35.6864 69.5296v-0.0512a50.0736 50.0736 0 0 0 44.9024 27.2896h141.2096c0.6144 0 4.352 0 8.5504-0.6656 2.2528-0.3584 6.9632-1.4848 12.288-4.352l219.1872-101.4784c12.9536-5.4272 22.528-16.0256 26.5216-28.672a42.0864 42.0864 0 0 0-5.7856-37.0688l-53.9648-126.976h-0.0512a50.2272 50.2272 0 0 0-62.464-27.8016l-0.2048 0.0512c-18.2784 6.1952-41.472 14.9504-64.1536 23.3472l-23.552 8.704-3.072-414.464a50.0736 50.0736 0 0 0-27.4432-44.8512l-1.2288-0.5632c-13.7216-6.144-28.0064-13.568-40.8064-18.0736-14.848-5.1712-29.7984-7.5776-49.9712-7.68v-0.0512c-44.8512-2.048-71.5264 11.3152-104.96 29.696l-0.3584 0.1536-0.7168 0.4096a50.0736 50.0736 0 0 0-26.4192 44.4416v124.16h-51.2v-130.7136c0-16.896-8.6528-35.584-27.5456-45.056l-0.6144-0.3072c-16.3328-7.7312-30.8736-13.7728-46.848-17.6128-16.0768-3.84-32.256-5.1712-51.712-5.1712-18.8416 0-33.8944 0.8192-49.0496 4.3008a208.2304 208.2304 0 0 0-42.3424 15.7696c-20.6848 7.0144-32.0512 27.0336-32.0512 46.4384V473.088l-86.016-32.6144a41.0624 41.0624 0 0 0-11.3664-3.9424c-4.1984-0.6656-7.936-0.6144-8.5504-0.6144a52.224 52.224 0 0 0-47.616 31.2832L23.552 610.2016a49.4592 49.4592 0 0 0 26.0096 65.8944l201.9328 93.696v-0.1024a45.1072 45.1072 0 0 0 12.288 4.096c4.352 0.6656 8.3456 0.6144 9.3696 0.6144h156.0064zM87.4496 623.2064l49.3568-119.4496 118.4256 45.056 5.5808 1.536a32.0512 32.0512 0 0 0 5.7856 0.512h1.6384c17.664 0 32-14.336 32-32v-449.1264c11.1104-5.0176 18.0224-7.68 24.832-9.2672 7.9872-1.8432 17.3056-2.6624 34.56-2.6624 16.5888 0 27.2896 1.1264 36.864 3.3792 7.68 1.8944 15.5136 4.7104 25.9072 9.3696v154.112c0 17.664 14.336 32 32 32h115.2c17.664 0 32-14.336 32-32v-148.1216c27.136-14.6944 40.6528-19.968 65.5872-18.7904h1.4848c15.1552 0 23.04 1.6896 30.208 4.1984 7.7824 2.7136 14.0288 5.9392 26.7264 11.8272l3.2256 435.2v14.848c0 17.664 14.336 31.9488 32 31.9488h1.6896l4.9152-0.3584a32.2048 32.2048 0 0 0 4.8128-1.1776c19.5584-6.2464 43.3664-15.0016 66.1504-23.4496 18.2272-6.7584 35.84-13.2096 50.7904-18.5344l44.544 104.8064L732.16 710.4H603.136l-58.5216-114.1248a32.0512 32.0512 0 0 0-56.1664-1.4336l-67.072 115.5584H275.456L87.4496 623.2064z m203.776-549.6832l-0.3072 0.2048-3.4304 1.1776 3.7376-1.3824zM512 384c16.384 0 30.72-14.336 30.72-30.72 0-16.384-14.336-30.72-30.72-30.72-16.384 0-30.72 14.336-30.72 30.72 0 16.384 14.336 30.72 30.72 30.72z m0 102.4c16.384 0 30.72-14.336 30.72-30.72 0-16.384-14.336-30.72-30.72-30.72-16.384 0-30.72 14.336-30.72 30.72 0 16.384 14.336 30.72 30.72 30.72z"  horiz-adv-x="1024" />
      
      <glyph glyph-name="shengxian" unicode="&#59197;" d="M262.1952 138.1888c-14.4384 14.7968-21.8112 34.6112-26.0096 56.0128l-1.7408 9.4208-0.1024 0.512h0.0512c-1.3312 9.5744-14.336 96.2048-16.9472 142.6432-44.544 55.3984-126.208 177.5104-103.8848 320.3072l1.536 8.3456c4.3008 20.4288 14.1824 46.848 33.1776 65.8432 21.7088 21.7088 53.1968 31.5392 74.24 34.7136v-0.1024c142.336 22.016 264.6016-59.1872 320.1536-103.7824 46.592-2.6112 133.3248-15.616 142.9504-16.9984l0.8704-0.1024c24.4224-4.2496 48.0768-11.9296 64.512-27.9552V627.2v-0.1024l0.6656-0.512-0.1024-0.0512a63.0272 63.0272 0 0 0 19.3536-45.2096c-0.3072-17.664-7.168-34.6624-19.712-47.36L686.2848 468.992c27.6992-93.0304 25.088-138.24 23.3984-169.5232v-0.1536l-0.3072-6.4512c9.728-0.8704 21.76-1.024 35.4304-1.1776 16.3328 0 36.352-0.2048 56.6784-1.792h0.3072c35.0208-3.072 66.56-11.264 87.04-31.744v-0.0512a65.1776 65.1776 0 0 0 19.968-48.0256h-0.1024c-0.2048-24.3712-14.336-43.1616-29.0304-56.064l-0.6144-0.5632c-12.288-10.24-30.5152-19.2512-47.0016-26.4704-16.384-7.168-34.304-13.824-49.92-19.3536-5.4784-15.36-11.8784-32.3584-18.6368-47.9232-7.5776-17.408-16.9472-36.6592-27.4432-49.2544h-0.0512c-13.6192-16.4352-32.7168-29.2352-55.552-30.1056h-0.6656a65.1776 65.1776 0 0 0-48.0768 20.0704l-0.512 0.512c-17.6128 17.9712-25.7024 44.544-29.696 73.5232l-1.4336 12.6464-0.1024 0.1024a450.048 450.048 0 0 0-1.6384 30.72l-0.512 26.4192v0.4096c-0.1536 13.8752-0.3072 25.8048-1.1264 35.4304l-6.1952-0.3072h-0.4096c-31.3344-1.7408-76.4928-4.352-169.5744 23.3472l-65.024-65.0752c-3.072-3.072-21.1968-20.5824-48.8448-19.9168l-6.2976 0.512a63.3344 63.3344 0 0 0-37.5808 18.8416l-0.1536 0.1536-0.512 0.4096h0.1024z m46.8992 44.544a9.4208 9.4208 0 0 1 1.1264 0.6656l78.6432 78.6432a32.0512 32.0512 0 0 0 32.3584 7.8336c97.1264-30.976 138.24-27.648 165.2736-26.112 9.216 0.6144 23.9616 2.1504 38.4512-1.792a42.752 42.752 0 0 0 12.032-5.12c3.7888-2.4576 6.2976-5.0176 6.9632-5.632 7.8848-7.8848 11.264-17.5616 13.0048-23.7056 1.8432-6.7584 2.816-13.9264 3.4304-20.48 1.2288-12.9024 1.28-28.16 1.4336-41.1648 0.4096-18.1248 0.2048-34.6112 1.8944-52.5824v-0.0512c3.1744-32 9.6768-43.9808 13.312-47.616l0.512-0.5632c0.3072-0.3072 0.6144-0.512 0.8704-0.6144a12.8 12.8 0 0 1 4.4032 2.7136l3.9424 4.1472 0.1536 0.1536c3.9936 4.8128 10.3424 16.3328 17.8688 33.7408 3.584 8.192 7.1168 16.9472 10.4448 25.8048l9.472 26.0096 1.9456 4.352c6.2976 11.776 17.5104 20.1216 30.464 25.2416a687.104 687.104 0 0 1 49.2544 18.944c15.872 6.9632 26.624 12.9536 31.488 16.896a32.1536 32.1536 0 0 1 6.4 7.2704c0.8192 1.4336 0.5632 1.6384 0.5632 0.9216v0.512a2.56 2.56 0 0 1-0.6656 1.2288l-0.5632 0.512c-3.7376 3.7888-15.6672 10.3936-47.36 13.2096a690.688 690.688 0 0 1-51.8144 1.5872h-0.3584c-13.312 0.1536-28.672 0.3584-41.7792 1.5872a123.5456 123.5456 0 0 0-20.2752 3.4304 52.5312 52.5312 0 0 0-23.6032 12.8l-2.048 2.2528a38.912 38.912 0 0 0-8.7552 17.4592h-0.2048l-0.256 1.4848c0 0.3072-0.2048 0.6144-0.256 0.9216h0.1024c-2.6112 12.7488-1.792 25.2416-1.1776 35.4304l0.9216 23.552c0.1024 27.4944-3.84 68.8128-27.136 141.6192a32.0512 32.0512 0 0 0 7.8848 32.4096l78.1312 78.1312 0.9216 1.4336c0.1024 0.2048 0.1024 0.512 0.1536 0.8192l-0.256 0.256c-2.048 2.048-9.5232 6.8096-30.208 10.496-14.0288 2.048-109.4144 16.384-145.92 16.896l-5.376 0.5632a32.0512 32.0512 0 0 0-14.592 6.912c-48.64 40.6528-157.3376 115.2512-278.1696 96.5632h-0.1024c-14.336-2.1504-30.4128-8.5504-38.5024-16.64-8.192-8.192-14.5408-24.2688-16.6912-38.5536v-0.2048c-19.0976-121.088 55.808-229.376 96.5632-278.0672 4.6592-5.632 7.2704-12.6976 7.424-20.0192 0.512-36.2496 14.6944-130.0992 16.896-145.664l2.6624-13.5168c2.816-11.1104 5.8368-15.5136 7.5776-17.2544l0.4096-0.4096a6.656 6.656 0 0 1 0.7168 0.3584z m-12.2368 337.152a51.2 51.2 0 1 0 72.448 72.3968 51.2 51.2 0 0 0-72.448-72.3968z"  horiz-adv-x="1024" />
      
      <glyph glyph-name="qiche" unicode="&#59156;" d="M719.6672 773.8368a134.4512 134.4512 0 0 0 120.32-110.7968l35.5328-204.9536c0.1024 0 0.1536-0.1024 0.256-0.1536a134.4 134.4 0 0 0 84.992-114.8416l9.8816-128a134.144 134.144 0 0 0-69.4272-127.9488 108.7488 108.7488 0 0 0-96.4608-92.9792l-11.1616-0.5632c-47.616 0-88.064 30.6688-102.8096 73.216a13.4144 13.4144 0 0 1-1.3312 2.7648c-0.2048 0.3584-0.512 0.6144-0.6656 0.8192H335.2576l-0.6656-0.8192a13.6192 13.6192 0 0 1-1.3312-2.7648 108.9024 108.9024 0 0 0-94.0032-72.8576l-8.8576-0.3584a108.7488 108.7488 0 0 0-107.6736 93.5424 134.144 134.144 0 0 0-69.3248 128l9.8304 128a134.4 134.4 0 0 0 84.992 114.7904l0.2048 0.1536 35.7376 204.9536a134.4 134.4 0 0 0 132.4032 111.36h390.912l12.1856-0.512zM316.5696 710.4c-34.2528 0-63.488-24.6272-69.376-58.368l-36.096-207.2576c-4.1984-24.1664-22.272-39.68-39.4752-46.4384a70.4512 70.4512 0 0 1-44.544-60.16l-9.8816-128a70.4 70.4 0 0 1 43.52-70.5024c15.616-6.4 24.8832-21.504 24.8832-37.2736a44.8 44.8 0 0 1 87.1424-14.6432c6.9632 20.0192 26.7264 46.592 60.0576 46.6432h358.4c33.3312 0 53.0944-26.624 60.0576-46.6432a44.8512 44.8512 0 0 1 87.1424 14.6432c0 15.4624 8.96 30.8224 24.8832 37.376 27.4944 11.264 45.9776 39.1168 43.52 70.4l-9.7792 128a70.4 70.4 0 0 1-44.544 60.16c-17.3056 6.7584-35.328 22.272-39.5776 46.4896l-35.9936 207.2064a70.4512 70.4512 0 0 1-63.0784 58.0608l-6.3488 0.3072H316.5696zM268.8 332.8a64 64 0 1 0 0-128 64 64 0 0 0 0 128z m512 0a64 64 0 1 0 0-128 64 64 0 0 0 0 128z m-137.4208 313.6c28.672 0 52.9408-21.0944 57.0368-49.4592l18.2784-128a57.6 57.6 0 0 0-56.9856-65.7408H362.2912c-35.0208 0-61.952 31.0784-56.9856 65.7408l18.2784 128c4.096 28.3648 28.3648 49.4592 57.0368 49.4592h262.7584z m-273.664-179.2h284.5696l-16.4352 115.2H386.1504l-16.4352-115.2z"  horiz-adv-x="1024" />
      
      <glyph glyph-name="jiaju2" unicode="&#59178;" d="M537.2416 808.7552c13.2096-22.016 33.0752-57.7024 50.3296-93.9008 7.168-15.1552 13.9776-30.6688 19.6608-45.4656 14.5408 15.9744 29.4912 31.3344 44.1856 45.056 26.368 24.576 55.296 47.104 81.664 55.9104l38.7584 12.9024V742.4c0-26.368-1.3312-69.7856-5.2224-115.0976a932.864 932.864 0 0 0-10.1376-79.872c49.0496 12.032 97.9968 19.6096 139.52 19.6096h40.8576l-12.9024-38.7584c-13.824-41.5232-40.96-95.4368-77.824-145.664a497.664 497.664 0 0 0-71.4752-78.8992c15.2576-10.3936 25.344-27.8528 25.344-47.7184V76.8A134.4 134.4 0 0 0 665.6-57.6H358.4A134.4 134.4 0 0 0 224 76.8v179.2c0 23.6544 14.2336 43.9296 34.6112 52.7872a527.36 527.36 0 0 0-56.7808 55.808c-46.7968 53.504-88.576 122.112-102.656 192.8704l-7.0656 35.1744H128c50.432 0 95.5904-4.864 136.192-13.312-3.1744 36.7104-0.5632 84.48 14.4384 144.64l8.192 32.6656 31.3344-12.4928c35.9424-14.336 69.4784-42.8032 99.328-76.1344 5.3248 16.896 12.0832 34.9184 19.456 52.1216 8.3456 19.456 17.5616 38.5536 26.5728 54.5792 8.5504 15.2576 18.2272 30.208 27.648 39.68l26.6752 26.7264 19.456-32.3584zM288 76.8c0-38.912 31.5392-70.4 70.4-70.4h307.2c38.912 0 70.4 31.5392 70.4 70.4v172.8h-448V76.8z m-120.832 455.7824c16.3328-45.4656 45.2096-90.624 79.0016-129.1776 38.7584-44.288 80.64-76.1344 111.4112-89.8048h169.1136c-24.2688 45.056-58.5216 95.4368-112.5376 136.6016-55.3984 42.1888-133.5296 76.032-246.9888 82.432z m683.8272-27.392c-38.5536-4.608-82.2272-14.2336-125.6448-27.392-43.0592-13.056-89.3952-37.0688-141.312-88.9856a29.184 29.184 0 0 0-7.3216-5.2224c8.6528-26.5216 14.5408-50.944 15.6672-69.9904h96.256c41.3184 23.5008 79.0016 61.44 110.0288 103.7824 21.6576 29.5424 39.3216 60.3136 52.3264 87.808z m-139.4176 183.6544c-6.2976-5.12-13.0048-10.9568-20.0192-17.5104a871.3216 871.3216 0 0 1-75.2128-81.408A972.288 972.288 0 0 1 560.128 515.072a320 320 0 0 1-15.7696-25.9072 69.9392 69.9392 0 0 1-3.584-7.6288l-1.3312-5.376c5.4272-11.4688 10.496-22.784 15.1552-33.8432 48.2816 45.3632 93.9008 71.168 137.9328 86.6816 7.168 28.7232 12.1856 65.9456 15.4112 103.424 1.6896 19.6608 2.816 38.912 3.584 56.4736z m-383.7952-17.5104c-8.448-49.152-6.7072-84.6848-2.2016-108.8 48.9984-16.7424 89.9584-39.424 124.2624-65.536 8.1408-6.144 15.8208-12.544 23.1424-19.0464a932.352 932.352 0 0 1-15.5136 29.3376c-23.3472 41.984-50.2272 82.6368-78.592 115.5072a314.5216 314.5216 0 0 1-51.0976 48.5376z m182.4256 65.6896c-6.3488-12.0832-13.056-25.8048-19.1488-40.0896a497.664 497.664 0 0 1-19.2512-52.224c-5.0176-16.7424-7.168-29.0816-7.168-36.0448 0-0.3584-0.1536-0.6656-0.1536-1.024 15.0016-21.6576 29.0816-44.4416 41.984-67.328l4.6592 7.2704c13.4656 20.1728 31.3344 44.3904 51.2512 69.2224a214.3232 214.3232 0 0 1-7.2192 23.9616c-5.4272 14.9504-12.6976 31.744-20.7872 48.8448a1056.6656 1056.6656 0 0 1-24.1664 47.4112z"  horiz-adv-x="1024" />
      
      <glyph glyph-name="wenwan-fozhu" unicode="&#59158;" d="M512 802.304c42.5984 0 79.1552-25.3952 95.5904-61.7984a104.9088 104.9088 0 0 0 165.5808-95.5392 104.96 104.96 0 0 0 95.5904-165.632 104.8576 104.8576 0 0 0-0.0512-191.1808c23.296-32.4608 27.0848-76.8 5.7856-113.664a104.9088 104.9088 0 0 0-101.376-51.8656 104.8576 104.8576 0 0 0-165.5808-95.6416 104.8064 104.8064 0 0 0-191.1808 0.0512 104.8064 104.8064 0 0 0-165.5808 95.5904 104.8576 104.8576 0 0 0-95.5392 165.5296 104.8576 104.8576 0 0 0 0 191.1808 104.9088 104.9088 0 0 0 95.5904 165.632 104.8576 104.8576 0 0 0 165.5808 95.5904A104.9088 104.9088 0 0 0 512 802.304z m0-683.52a48.64 48.64 0 1 1 0-97.28 48.64 48.64 0 0 1 0 97.28z m-132.5056 35.5328a48.64 48.64 0 1 1-48.64-84.3264 48.64 48.64 0 0 1 48.64 84.3264z m331.4176-17.8176a48.64 48.64 0 1 1-84.2752-48.7424 48.64 48.64 0 0 1 84.2752 48.7424z m-137.728 475.7504a104.2944 104.2944 0 0 0-122.4192-0.0512 104.3456 104.3456 0 0 0-106.0864-61.184 104.3456 104.3456 0 0 0-61.184-105.984 104.3456 104.3456 0 0 0 0.0512-122.4704 104.448 104.448 0 0 0 61.1328-106.0864 104.3456 104.3456 0 0 0 106.0864-61.184 104.448 104.448 0 0 0 122.4192 0 104.3968 104.3968 0 0 0 106.0864 61.2352 104.3456 104.3456 0 0 0 61.1328 105.984 104.448 104.448 0 0 0 0 122.4704 104.2944 104.2944 0 0 0-61.1328 105.984 104.3456 104.3456 0 0 0-106.0864 61.2864z m-290.6112-360.96a48.64 48.64 0 1 1-84.2752-48.6912 48.64 48.64 0 0 1 84.2752 48.64z m525.312 17.8176a48.64 48.64 0 1 1-48.5376-84.3776 48.64 48.64 0 0 1 48.5376 84.3776zM198.4 432.4352a48.64 48.64 0 1 1 0-97.3824 48.64 48.64 0 0 1 0 97.3312z m627.2 0a48.64 48.64 0 1 1 0-97.3824 48.64 48.64 0 0 1 0 97.3312zM264.7552 582.656a48.64 48.64 0 1 1-48.64-84.2752 48.64 48.64 0 0 1 48.64 84.2752z m560.9472-17.8176a48.64 48.64 0 1 1-84.3264-48.64 48.64 48.64 0 0 1 84.3264 48.64zM397.3632 679.6288a48.64 48.64 0 1 1-84.2752-48.64 48.64 48.64 0 0 1 84.2752 48.64z m295.7824 17.8176a48.64 48.64 0 1 1-48.64-84.2752 48.64 48.64 0 0 1 48.64 84.2752zM512 745.984a48.64 48.64 0 1 1 0-97.28 48.64 48.64 0 0 1 0 97.28z"  horiz-adv-x="1024" />
      
      <glyph glyph-name="chuju" unicode="&#59169;" d="M332.8512 793.6c52.992 0 96-43.008 96-96v-281.6c0-50.8416-39.5776-92.3136-89.6-95.6416v-39.936c37.5808-4.096 77.1584-19.6608 109.0048-42.1888 36.7104-25.9584 70.1952-66.4064 70.1952-116.6336 0-63.2832-8.4992-112.9984-50.2272-139.1616-19.1488-11.9296-41.984-16.5376-65.2288-18.688-23.3984-2.1504-51.5072-2.1504-82.944-2.1504-31.3856 0-58.7776 0-81.1008 2.1504-22.1184 2.1504-44.1856 6.8608-62.3104 19.8144-19.3024 13.824-29.696 33.5872-35.328 56.4224-5.3248 21.9648-6.912 49.152-6.912 81.6128 0 48.3328 28.16 88.7296 62.6176 115.712 22.6304 17.7152 49.92 31.232 78.2336 38.4V332.8c0 2.048 0.2048 4.096 0.6144 6.0416a95.744 95.744 0 0 0-39.0144 77.1584v281.6C236.8512 750.6432 279.8592 793.6 332.8512 793.6z m396.7488 0c53.0432 0 96-43.008 96-96v-281.6c0-41.7792-26.7264-77.2096-64-90.4192v-47.1552a160.0512 160.0512 0 1 0-64 0v47.1552a95.8976 95.8976 0 0 0-64 90.4192v281.6c0 53.0432 43.008 96 96 96zM335.8208 216.3712a31.8976 31.8976 0 0 0-28.5696-17.9712 31.8976 31.8976 0 0 0-25.344 12.6464 150.528 150.528 0 0 1-45.4144-24.1664c-24.7296-19.3536-38.0416-42.9568-38.0416-65.28 0-31.5904 1.6384-52.3264 5.12-66.4064 3.1744-13.1072 7.168-17.3568 10.24-19.5584 4.352-3.072 12.7488-6.3488 31.3344-8.192l3.2256-0.2048v79.0016a32 32 0 0 0 64 0v-80.5888l7.68-0.0512c11.1104 0 21.2992 0.1024 30.72 0.2048v80.4352a32 32 0 0 0 64 0v-76.1856c9.216 1.8432 15.36 4.096 19.5072 6.656 9.4208 5.9392 20.1728 20.2752 20.1728 84.8896 0 20.48-14.3872 44.032-43.1616 64.4096a177.9712 177.9712 0 0 1-75.4688 30.3616z m393.7792 1.2288a96 96 0 1 1 0-192 96 96 0 0 1 0 192z m-396.7488 512a32 32 0 0 1-32-32v-281.6a32 32 0 1 1 64 0v281.6a32.0512 32.0512 0 0 1-32 32z m396.7488 0a32 32 0 0 1-32-32v-281.6a32 32 0 1 1 64 0v281.6a32 32 0 0 1-32 32z"  horiz-adv-x="1024" />
      
      <glyph glyph-name="huwai" unicode="&#59174;" d="M582.8608 758.9888a32 32 0 0 0 54.7328-33.1776l-70.5024-116.1216 342.3232-563.8656a57.6512 57.6512 0 0 0-49.2544-87.5008H199.168c-44.9536 0-72.6016 49.152-49.3056 87.552L492.1856 609.6384 421.7344 725.8112a32 32 0 1 0 54.6816 33.1776l53.248-87.6544 53.248 87.6544zM210.4832 22.3232h83.3024a32.4096 32.4096 0 0 0 3.1232 5.5808l167.0656 238.592 4.5568 5.7856a57.6512 57.6512 0 0 0 89.8048-5.7344l167.0656-238.6432a32.1024 32.1024 0 0 0 3.072-5.5808h120.32L529.664 548.0448 210.4832 22.3232z m160.6656 0h279.9616l-139.9808 200.0384-139.9808-200.0384z"  horiz-adv-x="1024" />
      
      <glyph glyph-name="jiaju1" unicode="&#59175;" d="M512 57.6c17.664 0 32-14.336 32-32v-51.2a32 32 0 1 0-64 0v51.2c0 17.664 14.336 32 32 32z m-225.792 43.3664a32 32 0 0 0 41.984-48.3328l-38.656-33.5872a32 32 0 0 0-41.984 48.2816l38.656 33.6384z m406.4256-3.1744a32 32 0 0 0 45.1584 3.1744l38.656-33.6384a32 32 0 0 0-41.984-48.2816l-38.656 33.5872a32 32 0 0 0-3.1744 45.1584zM512 825.6c17.664 0 32-14.336 32-32v-198.4h1.6896a356.7104 356.7104 0 0 0 356.7104-356.7104c0-22.1184-17.92-40.0896-40.0896-40.0896h-216.2688a134.2464 134.2464 0 0 0-268.0832 0H161.6896a40.1408 40.1408 0 0 0-40.0896 40.0896 356.7104 356.7104 0 0 0 356.7104 356.7104h1.6896V793.6c0 17.664 14.336 32 32 32z m-70.144-627.2a70.4 70.4 0 0 1 140.288 0H441.856z m36.4544 332.8c-153.6 0-279.552-118.3232-291.6352-268.8h650.7008a292.6592 292.6592 0 0 1-291.6864 268.8H478.3104z"  horiz-adv-x="1024" />
      
      <glyph glyph-name="neiyi" unicode="&#59151;" d="M777.1136 313.6c39.1168 0 75.8272-28.2112 79.5136-71.0144 1.3824-16.1792 2.2528-35.6864 0.9728-54.9376-2.9696-43.4176-41.2672-63.9488-69.632-68.864-81.92-14.1312-163.4304-78.4896-212.3776-124.8256-35.1232-33.28-92.0064-33.28-127.1296 0-48.9984 46.336-130.56 110.6944-212.3776 124.8256-28.3648 4.9152-66.6624 25.4464-69.632 68.864a364.2368 364.2368 0 0 0 0.9216 54.9376c3.6864 42.8032 40.448 71.0144 79.5648 71.0144h530.1248z m-530.176-64c-9.7792 0-15.3088-6.5024-15.8208-12.4928-1.2288-14.336-1.8432-30.2592-0.8192-45.1072 0.0512-1.024 0.3584-2.304 2.7136-4.3008 2.7136-2.304 7.6288-4.7104 13.9776-5.7856 102.0416-17.6128 195.5328-94.2592 245.4528-141.5168 10.4448-9.8816 28.672-9.8816 39.168 0 49.92 47.2576 143.36 123.904 245.4528 141.5168a30.4128 30.4128 0 0 1 13.9776 5.7856c2.3552 1.9968 2.6112 3.2768 2.7136 4.3008 1.024 14.848 0.3584 30.7712-0.8704 45.056-0.512 6.0416-5.9904 12.544-15.8208 12.544H246.9888zM768 819.2a25.6 25.6 0 0 0 25.6-25.6v-153.6c0-0.6144-0.1536-1.1776-0.2048-1.7408a153.6 153.6 0 0 0-95.8976-273.408c-40.7552 0-89.8048 15.9744-128.7168 40.5504-20.8896 13.2096-42.1376 31.1296-56.832 53.0944-14.7456-22.016-35.9424-39.8848-56.832-53.0944-38.912-24.576-88.0128-40.5504-128.7168-40.5504A153.6 153.6 0 0 0 256 654.848V793.6a25.6 25.6 0 0 0 51.2 0v-122.7776c6.2976 0.768 12.6976 1.1776 19.2 1.1776 40.704 0 89.8048-15.9744 128.6656-40.5504 20.8896-13.2096 42.1376-31.0784 56.832-53.0432 14.7456 21.9648 35.9936 39.8336 56.8832 53.0432 38.912 24.576 87.9616 40.5504 128.7168 40.5504 15.616 0 30.72-2.304 44.9024-6.656V793.6a25.6 25.6 0 0 0 25.6 25.6zM326.4 608a89.6 89.6 0 0 1 0-179.1488c26.4192 0 63.744 11.264 94.464 30.6688 32.1536 20.2752 46.3872 42.2912 46.3872 58.88 0 16.5888-14.2336 38.656-46.3872 58.9312-30.72 19.456-68.096 30.6688-94.464 30.6688z m371.0976 0c-26.4192 0-63.7952-11.264-94.5152-30.6688-32.1024-20.2752-46.336-42.3424-46.336-58.9312 0-16.5888 14.2336-38.6048 46.336-58.88 30.72-19.456 68.096-30.6688 94.5152-30.6688a89.6 89.6 0 1 1 0 179.1488z"  horiz-adv-x="1024" />
      
      <glyph glyph-name="nvxie" unicode="&#59153;" d="M677.376 741.3248a58.2656 58.2656 0 0 0 79.5136 26.3168c87.3984-45.4144 137.0112-85.6576 158.464-133.632 21.504-48.2304 10.9568-97.5872 1.6896-145.408-6.144-32.2048-12.9024-67.7376-12.9024-111.3088v-324.096c0-32.256-25.7536-59.5968-58.88-59.5968h-79.104a59.392 59.392 0 0 0-59.2896 59.5456v162.6112c-16.2304-46.6432-34.2016-98.5088-54.6304-138.8544-10.3936-20.5824-22.4256-40.192-36.5568-55.04-14.0288-14.7968-33.4848-28.2624-58.2656-28.2624H212.736c-36.4544 0-66.4576 12.1856-87.296 33.8432a108.544 108.544 0 0 0-29.44 75.7248c0 58.0096 39.936 102.912 120.1152 143.0528 25.088 12.544 58.7264 25.3952 85.1968 34.816a1617.8688 1617.8688 0 0 0 46.7968 15.872l0.7168 0.256h0.256a59.2384 59.2384 0 0 0 70.4512-26.4704l0.1536-0.2048c3.1744-5.5808 10.9056-10.4448 20.8384-10.5472 9.4208-0.0512 14.4384 4.0448 16.4864 8.704l0.2048 0.4608 0.2048 0.4096 219.648 471.1936 0.256 0.6144z m-161.6384-497.92c-14.4896-33.6896-46.8992-47.6672-75.776-47.4624-27.136 0.2048-56.9344 12.8-73.8816 39.5776l-1.0752-0.4096-9.6768-3.1744c-8.192-2.7136-19.6608-6.6048-32.512-11.1616-26.112-9.3184-56.6784-21.0432-78.1312-31.744-73.4208-36.7104-84.6848-65.2288-84.6848-85.8624 0-12.6464 4.2496-23.7056 11.6224-31.3856 6.9632-7.2704 19.3536-14.1824 41.1136-14.1824h344.6784c0.1024 0 3.9424 0 11.8784 8.3456 7.8848 8.2944 16.5376 21.5552 25.8048 39.8336 18.4832 36.608 35.3792 85.1968 52.3776 133.9904 10.2912 29.952 20.48 59.1872 30.0544 83.456l0.0512 0.1024c4.2496 10.5984 9.2672 20.5312 15.1552 28.4672 2.9696 3.9424 6.8096 8.3456 11.7248 12.0832a40.704 40.704 0 0 0 22.8352 8.5504c25.4976 1.024 35.9936-20.6336 38.912-28.8768 3.584-10.24 4.608-22.3744 4.608-34.6624v-251.2896h69.3248V377.344c0 50.2272 7.936 91.136 14.08 123.392 10.24 52.8384 14.4384 80.7936 2.6624 107.2128-11.6224 26.112-42.496 57.088-124.416 100.2496l-216.7296-464.7424z"  horiz-adv-x="1024" />
      
      <glyph glyph-name="nanzhuang" unicode="&#59154;" d="M627.0976 777.5232c18.6368 15.5136 43.008 22.1184 66.9184 18.176l95.5904-15.9744a83.2 83.2 0 0 0 67.8912-65.7408l83.2512-416.1024a83.2512 83.2512 0 0 0-81.5616-99.4816h-58.112l17.1008-136.9088c6.144-49.664-32.5632-93.4912-82.5856-93.4912H288.4096A83.2 83.2 0 0 0 205.8752 61.44l17.1008 136.9088H164.864a83.2512 83.2512 0 0 0-81.6128 99.4816l83.2512 416.1024a83.2 83.2 0 0 0 67.8912 65.7408l95.6416 15.9744c23.8592 3.9424 48.2816-2.6624 66.8672-18.176L499.712 691.8656a19.2512 19.2512 0 0 1 24.576 0l102.8096 85.6576z m56.4224-44.9536a19.2512 19.2512 0 0 1-15.4624-4.1984L565.248 642.7136a83.2 83.2 0 0 0-106.496 0L355.9424 728.3712a19.2512 19.2512 0 0 1-15.4112 4.1984l-95.6416-15.9232a19.2512 19.2512 0 0 1-15.616-15.2064l-83.2-416.1024a19.2 19.2 0 0 1 18.7904-22.9376h66.0992l18.944 151.1424a32 32 0 0 0 63.488-7.936l-44.032-352a19.2512 19.2512 0 0 1 19.0464-21.6064h447.1808c11.5712 0 20.48 10.1376 19.0464 21.6064l-43.9808 352a32 32 0 0 0 63.488 7.936l18.944-151.1424h66.048a19.2 19.2 0 0 1 18.8416 22.9376L794.7776 701.44a19.2512 19.2512 0 0 1-15.6672 15.2064l-95.5904 15.9232z m-156.0064-139.0592a32 32 0 0 0 40.448-20.224l68.9152-206.592c8.0896-24.3712 4.5056-51.2-9.728-72.4992l-49.664-74.496a83.2512 83.2512 0 0 0-134.2464-5.8368L401.408 266.24a83.2512 83.2512 0 0 0-14.7456 75.8272l69.12 230.2976A31.744 31.744 0 1 0 512 582.144c3.7376 5.12 9.0112 9.216 15.5136 11.3664z m-79.5648-269.824a19.3024 19.3024 0 0 1 3.4304-17.5104l41.8816-52.3264a19.2 19.2 0 0 1 30.9248 1.3312l49.7152 74.496a19.3024 19.3024 0 0 1 2.2016 16.7424L512.256 538.112 448 323.7376z"  horiz-adv-x="1024" />
      
      <glyph glyph-name="xiangzi" unicode="&#59155;" d="M614.4 793.6a76.8 76.8 0 0 0 76.8-76.8v-44.8H768c45.9776 0 83.2-37.2736 83.2-83.2v-460.8c0-45.9776-37.2224-83.2-83.2-83.2h-70.4v-44.8a32 32 0 1 0-64 0v44.8h-217.6v-44.8a32 32 0 1 0-64 0v44.8H256A83.2 83.2 0 0 0 172.8 128V588.8c0 45.9264 37.2736 83.2 83.2 83.2h76.8V716.8A76.8 76.8 0 0 0 409.6 793.6h204.8zM256 608A19.2 19.2 0 0 1 236.8 588.8v-460.8c0-10.5984 8.6016-19.2 19.2-19.2h512a19.2 19.2 0 0 1 19.2 19.2V588.8A19.2 19.2 0 0 1 768 608H256z m153.6-64c17.664 0 32-14.336 32-32v-307.2a32 32 0 1 0-64 0v307.2c0 17.664 14.336 32 32 32z m204.8 0c17.664 0 32-14.336 32-32v-307.2a32 32 0 1 0-64 0v307.2c0 17.664 14.336 32 32 32zM409.6 742.4a25.6 25.6 0 0 1-25.6-25.6v-44.8h256V716.8A25.6 25.6 0 0 1 614.4 742.4H409.6z"  horiz-adv-x="1024" />
      
      <glyph glyph-name="tongxin" unicode="&#59125;" d="M512 364.8c12.4928 0 23.808-7.2704 29.0304-18.5856l136.8576-296.448c17.6128-38.1952-10.24-81.7664-52.2752-81.7664H398.336c-41.984 0-69.888 43.5712-52.2752 81.7664l136.8576 296.448 2.2528 4.0448a32 32 0 0 0 26.7776 14.5408z m-103.5776-332.8h207.1552L512 256.512l-103.5776-224.512zM512 825.6a390.4 390.4 0 0 0 239.616-698.5216l-39.3216 50.5856A325.6832 325.6832 0 0 1 838.4 435.2a326.4 326.4 0 1 1-526.7456-257.536l-39.3216-50.5856A390.4 390.4 0 0 0 512 825.6z m0-127.3856a263.0144 263.0144 0 0 0 161.3824-470.528l-39.2704 50.5344a199.0144 199.0144 0 1 1-244.224 0l-39.3216-50.5856A263.0144 263.0144 0 0 0 512 698.1632z"  horiz-adv-x="1024" />
      
      <glyph glyph-name="dingzhi1" unicode="&#59127;" d="M268.8512 750.9504a83.2512 83.2512 0 0 0 96.8192 66.8672l453.3248-82.7904a83.2512 83.2512 0 0 0 66.8672-96.768l-104.6528-572.928c-3.072-16.9984-11.2128-31.7952-22.4256-43.264a83.1488 83.1488 0 0 0-81.664-67.4816h-460.8A83.2 83.2 0 0 0 133.12 37.7856v512c0 45.9264 37.2736 83.2 83.2 83.2h31.0272l21.504 117.9648zM216.32 568.9856a19.2 19.2 0 0 1-19.2-19.2v-512c0-10.5984 8.6016-19.2 19.2-19.2h460.8a19.2 19.2 0 0 1 19.2 19.2v512a19.2 19.2 0 0 1-19.2 19.2h-460.8z m294.7584-114.1248c55.6032 0 100.608-45.056 100.608-100.608l-0.0512-2.048v-0.512c0-59.0848-47.7184-128.6656-142.5408-185.344l-0.0512-0.0512a37.4784 37.4784 0 0 0-38.2464 0h-0.0512c-32.768 19.456-67.4304 45.824-94.2592 76.3392-26.368 29.952-48.384 67.6352-48.4352 109.056l0.0512 0.512v2.048c0 55.552 44.9536 100.608 100.5568 100.608l7.0656-0.1536c20.3264-1.4336 38.912-8.96 54.1696-20.6336 16.896 13.0048 38.144 20.7872 61.184 20.7872z m-5.4272-61.7984a39.3216 39.3216 0 0 1-28.928-19.8656 30.72 30.72 0 0 0-53.7088 0 39.2704 39.2704 0 0 1-73.5744-18.6368l0.1024-0.2048v-1.536l-0.0512-1.28c0.0512-19.7632 11.1104-43.3152 33.1264-68.352a328.192 328.192 0 0 1 67.2256-56.4736c77.2096 49.6128 100.2496 98.9184 100.352 124.8256v1.28 1.1264 0.4096l0.1024 0.2048a39.2704 39.2704 0 0 1-39.2192 38.912l-5.4272-0.4096zM354.1504 754.8928a19.2512 19.2512 0 0 1-22.3232-15.4624l-19.456-106.4448h364.7488c45.9776 0 83.2-37.2736 83.2-83.2v-242.688l62.5664 342.6304a19.2 19.2 0 0 1-15.4112 22.3744L354.1504 754.8928z"  horiz-adv-x="1024" />
      
      <glyph glyph-name="peijian" unicode="&#59132;" d="M406.5792 833.4848a31.9488 31.9488 0 0 0 42.9056 14.336c26.9824-13.5168 52.4288-29.3888 69.9904-55.7056 16.7424-25.1392 23.7056-55.9104 24.3712-94.5152h56.576a199.5776 199.5776 0 0 0 199.5776-199.5776V230.4a288 288 0 0 0-576 0V498.0224a199.5776 199.5776 0 0 0 199.5264 199.5776h56.32c-0.6656 31.0272-6.2976 47.9232-13.7216 59.0336-8.0384 12.0832-20.992 21.8624-45.2096 33.9456a31.9488 31.9488 0 0 0-14.336 42.9056z m16.9472-199.8848a135.5776 135.5776 0 0 1-135.5264-135.5776V230.4a224 224 0 0 1 448 0V498.0224a135.5776 135.5776 0 0 1-135.5776 135.5776H423.5264zM512 544c17.664 0 32-14.336 32-32v-121.6a32 32 0 0 0-64 0V512c0 17.664 14.336 32 32 32z"  horiz-adv-x="1024" />
      
      <glyph glyph-name="gongyepin" unicode="&#59133;" d="M685.3632 722.6368a70.4 70.4 0 0 0 0-99.584 6.4 6.4 0 0 1 0-9.0624l54.3232-54.272a6.4 6.4 0 0 1 9.0624 0 70.4 70.4 0 0 0 99.5328 0l63.3856-63.3856a83.2 83.2 0 0 0 0-117.6576l-90.5216-90.5216a83.2 83.2 0 0 0-117.6576 0l-15.2576 15.2576a83.1488 83.1488 0 0 0-11.8784-15.2576l-289.6384-289.6384a83.2 83.2 0 0 0-117.6576 0L124.2112 143.36a83.2 83.2 0 0 0 0 117.6576l289.6384 289.6384c4.7104 4.6592 9.8304 8.5504 15.2576 11.8784l-15.2576 15.2576a83.2 83.2 0 0 0 0 117.6576l90.5216 90.5216a83.2 83.2 0 0 0 117.6576 0l63.3856-63.3344z m-471.3472-462.336l-44.544-44.544a19.2 19.2 0 0 1 0-27.136l144.8448-144.8448a19.2 19.2 0 0 1 27.136 0l72.0384 72.0896H345.9584a32.0512 32.0512 0 0 0 0 64h131.584l70.656 70.656-334.1824 9.7792z m272.2304 245.0944a19.2 19.2 0 0 1-27.136 0L405.1456 451.4304H508.928a32.0512 32.0512 0 0 0 0-64.0512H341.0944l-64.8192-64.8704 334.1824-9.728 20.6336 20.6336a19.2 19.2 0 0 1 0 27.136L486.2464 505.3952z m90.5216 235.3152a19.2 19.2 0 0 1-27.136 0L459.1104 650.24a19.2 19.2 0 0 1 0-27.136l289.6384-289.6384a19.2 19.2 0 0 1 27.136 0l90.5216 90.5216a19.2 19.2 0 0 1 0 27.136l-63.3344 63.3856a6.4 6.4 0 0 1-9.0624 0 70.4 70.4 0 0 0-99.584 0l-54.272 54.272a70.4 70.4 0 0 0 0 99.584 6.4 6.4 0 0 1 0 9.0624l-63.3856 63.3344z"  horiz-adv-x="1024" />
      
      <glyph glyph-name="bangong" unicode="&#59137;" d="M716.8 793.6c45.9776 0 83.2-37.2736 83.2-83.2V640h44.8c45.9776 0 83.2-37.2736 83.2-83.2v-358.4c0-45.9776-37.2224-83.2-83.2-83.2h-44.8v-70.4c0-45.9776-37.2224-83.2-83.2-83.2H307.2a83.2 83.2 0 0 0-83.2 83.2V115.2H179.2a83.2 83.2 0 0 0-83.2 83.2v358.4C96 602.7264 133.2736 640 179.2 640h44.8V710.4C224 756.3264 261.2736 793.6 307.2 793.6h409.6zM307.2 268.8a19.2 19.2 0 0 1-19.2-19.2v-204.8c0-10.5984 8.6016-19.2 19.2-19.2h409.6a19.2 19.2 0 0 1 19.2 19.2v204.8A19.2 19.2 0 0 1 716.8 268.8H307.2z m-128 307.2a19.2 19.2 0 0 1-19.2-19.2v-358.4c0-10.5984 8.6016-19.2 19.2-19.2h44.8v70.4C224 295.5776 261.2736 332.8 307.2 332.8h409.6c45.9776 0 83.2-37.2224 83.2-83.2V179.2h44.8a19.2 19.2 0 0 1 19.2 19.2v358.4a19.2 19.2 0 0 1-19.2 19.2h-665.6z m532.48-70.4a46.08 46.08 0 1 0-0.0512-92.16 46.08 46.08 0 0 0 0.0512 92.16zM307.2 729.6a19.2 19.2 0 0 1-19.2-19.2V640h448V710.4A19.2 19.2 0 0 1 716.8 729.6H307.2z"  horiz-adv-x="1024" />
      
      <glyph glyph-name="shangye" unicode="&#59140;" d="M768 774.4c45.9776 0 83.2-37.2736 83.2-83.2v-409.6c0-45.9776-37.2224-83.2-83.2-83.2H479.3856l-80.4352-140.8h223.8976l-35.072 52.6336a32.0512 32.0512 0 0 0 53.248 35.5328l51.2-76.8c2.4064-3.584 3.9424-7.424 4.7104-11.3664H870.4a32 32 0 1 0 0-64H153.6a32 32 0 1 0 0 64h173.568a31.7952 31.7952 0 0 0 3.4304 9.5232l75.0592 131.2768H256A83.2 83.2 0 0 0 172.8 281.6V691.2c0 45.9264 37.2736 83.2 83.2 83.2h512zM256 710.4A19.2 19.2 0 0 1 236.8 691.2v-409.6c0-10.5984 8.6016-19.2 19.2-19.2h512a19.2 19.2 0 0 1 19.2 19.2V691.2A19.2 19.2 0 0 1 768 710.4H256z m145.5616-92.7744a64 64 0 0 0 62.2592 2.816l153.6-76.8a64.0512 64.0512 0 0 0 6.8608-110.4896l-153.6-102.4A64 64 0 0 0 371.2 384V563.2c0 22.1696 11.4688 42.8032 30.3616 54.4256zM435.2 384l153.6 102.4-153.6 76.8V384z"  horiz-adv-x="1024" />
      
      <glyph glyph-name="wenju" unicode="&#59141;" d="M256 774.4c45.9264 0 83.2-37.2736 83.2-83.2v-597.3504c0-17.9712-5.8368-35.4816-16.64-49.92l-25.6-34.1504c-33.28-44.3392-99.84-44.3392-133.12 0l-25.6 34.1504a83.2 83.2 0 0 0-16.64 49.92V691.2c0 45.9264 37.2736 83.2 83.2 83.2h51.2z m563.2 0c45.9776 0 83.2-37.2736 83.2-83.2v-614.4c0-45.9776-37.2224-83.2-83.2-83.2h-307.2A83.2 83.2 0 0 0 428.8 76.8V691.2c0 45.9264 37.2736 83.2 83.2 83.2h307.2zM275.2 522.496c-29.696-4.9664-59.904-4.9664-89.6 0v-428.6464c0-4.1472 1.3824-8.192 3.84-11.52l25.6-34.1504c7.68-10.24 23.04-10.24 30.72 0l25.6 34.1504a19.2 19.2 0 0 1 3.84 11.52V522.4448zM512 710.3488A19.2 19.2 0 0 1 492.8 691.2v-96H563.2a32 32 0 1 0 0-64H492.8v-115.2H563.2a32 32 0 1 0 0-64H492.8v-115.2H563.2a32 32 0 1 0 0-64H492.8V76.8c0-10.5984 8.6016-19.2 19.2-19.2h307.2a19.2 19.2 0 0 1 19.2 19.2V691.2A19.2 19.2 0 0 1 819.2 710.4h-307.2z m-307.2 0A19.2 19.2 0 0 1 185.6 691.2v-103.4752a210.688 210.688 0 0 1 89.6 0V691.2A19.2 19.2 0 0 1 256 710.4H204.8z"  horiz-adv-x="1024" />
      
      <glyph glyph-name="nongye" unicode="&#59144;" d="M700.1088 611.4304a32 32 0 0 0 38.4-51.2C642.6624 488.448 497.664 320 495.4112 54.6304h140.6976a32 32 0 0 0 0-64h-345.6a32 32 0 1 0 0 64h140.9024c2.304 290.5088 161.28 476.2624 268.6976 556.8zM202.1888 750.592c143.6672 10.4448 223.0272-20.0704 277.7088-62.7712a32 32 0 1 0-39.3728-50.432c-41.216 32.2048-108.2368 61.7984-254.464 47.5648-1.9968-77.5168 31.744-151.4496 79.616-210.176 45.312-55.4496 99.8912-93.184 141.4656-107.008 4.8128 70.4 24.4736 170.1888 86.2208 250.88 66.7136 87.2448 178.7904 147.2 357.7856 129.8944 31.5392-3.072 54.784-31.6416 50.6368-63.488-29.2352-226.5088-139.776-379.8528-286.3104-427.1616a32.0512 32.0512 0 0 0-19.712 60.928c113.2544 36.5568 212.6336 159.4368 241.408 366.592-154.7264 13.0048-242.1248-39.1168-293.0176-105.6768-53.6064-70.0416-70.656-160.9728-73.8816-225.8944-1.3824-27.8016-26.2656-60.9792-65.024-52.1216-60.8768 13.9776-133.5296 64.4608-189.184 132.608-56.1664 68.864-99.1744 160.768-93.696 261.4272l0.512 5.2224c3.84 25.7536 25.1392 44.3904 49.664 46.9504l29.6448 2.6624z"  horiz-adv-x="1024" />
      
      <glyph glyph-name="shouji" unicode="&#59149;" d="M716.8 800c45.9776 0 83.2-37.2736 83.2-83.2v-665.6c0-45.9776-37.2224-83.2-83.2-83.2H307.2A83.2 83.2 0 0 0 224 51.2v665.6c0 45.9264 37.2736 83.2 83.2 83.2h409.6zM288 230.4v-179.2c0-10.5984 8.6016-19.2 19.2-19.2h409.6a19.2 19.2 0 0 1 19.2 19.2V230.4h-448zM512 179.2a46.08 46.08 0 1 0-0.0512-92.16A46.08 46.08 0 0 0 512 179.2zM307.2 736a19.2 19.2 0 0 1-19.2-19.2v-422.4h448V716.8A19.2 19.2 0 0 1 716.8 736H307.2z"  horiz-adv-x="1024" />
      
      <glyph glyph-name="diannao" unicode="&#59150;" d="M870.4 793.6a51.2 51.2 0 0 0 51.2-51.2v-460.8a51.2 51.2 0 0 0-51.2-51.2h-326.4v-172.8H768a32 32 0 1 0 0-64H256a32 32 0 1 0 0 64h224V230.4H153.6l-5.2736 0.256a51.2 51.2 0 0 0-45.6704 45.7216L102.4 281.6V742.4a51.2 51.2 0 0 0 45.9264 50.944L153.6 793.6h716.8zM166.4 294.4h691.2v435.2H166.4v-435.2z"  horiz-adv-x="1024" />
      
      <glyph glyph-name="tushengci" unicode="&#59124;" d="M76.8 720.128a96 96 0 0 0 96 96h102.592a32 32 0 0 0 0-64H172.8a32 32 0 0 1-32-32v-128a32 32 0 1 0-64 0v128z m351.04 63.424a32 32 0 0 0 32 32h280.832a32 32 0 0 0 0-64H632.32v-295.104a32 32 0 0 0-64 0V751.552H459.84a32 32 0 0 0-32 32z m396.416-30.912a32 32 0 0 0 32-32v-60.288h34.944a32 32 0 1 0 0-64h-34.944V501.76a18.304 18.304 0 0 1 2.88-9.216 6.72 6.72 0 0 1 2.304-2.24 13.312 13.312 0 0 1 6.144-1.28 852.48 852.48 0 0 1 42.368-0.384h0.896a32 32 0 0 0 10.88-62.976 114.88 114.88 0 0 0-18.56-1.28c-8.32 0-20.48 0.128-37.632 0.64a72.32 72.32 0 0 0-59.072 31.104 82.688 82.688 0 0 0-14.208 45.312V596.352h-35.008a32 32 0 1 0 0 64h35.008V720.64a32 32 0 0 0 32 32zM470.848 453.312a32 32 0 0 1-32 32H133.632a58.24 58.24 0 0 1-58.176-58.24v-417.024c0-32.128 26.048-58.24 58.24-58.24h485.568a58.24 58.24 0 0 1 58.24 58.24V310.912a32 32 0 0 1-64 0v-102.656L468.992 306.432a32 32 0 0 1-38.4-1.792l-64.896-53.696-74.304 91.776a32 32 0 0 1-48.64 1.28L139.52 229.568V421.312h299.392a32 32 0 0 1 32 32z m-17.92-213.312l160.512-109.12v-115.008H139.52v118.144l125.824 139.392 71.04-87.872a32 32 0 0 1 45.312-4.48l71.296 58.88z m495.552-97.152a32 32 0 1 1-64 0l0.064-94.976a32 32 0 0 0-32-32h-90.432a32 32 0 1 1 0-64h90.432a96 96 0 0 1 96 96v94.976z"  horiz-adv-x="1024" />
      
      <glyph glyph-name="huiyuan-hg" unicode="&#59123;" d="M899.264 602.624l-190.08-92.544-145.056 217.6a42.656 42.656 0 0 1-71.008 0l-145.344-218.048L156.8 602.624c-31.616 15.424-67.264-11.904-60.576-46.432l94.048-487.04a85.344 85.344 0 0 1 83.776-69.12h507.968a85.312 85.312 0 0 1 83.776 69.12l94.048 487.04c6.656 34.528-28.96 61.856-60.576 46.432zM499.872 165.888L327.04 352h104.8l96.16-103.552L624.192 352h104.8l-172.832-186.112-28.16-30.304-28.16 30.304z"  horiz-adv-x="1056" />
      
      <glyph glyph-name="huiyuan" unicode="&#59121;" d="M520.448 418.8672l-77.824 77.824a36.7104 36.7104 0 0 1-51.8656-51.8656L494.592 340.992a36.7104 36.7104 0 0 1 51.8656 0l103.7312 103.7824A36.7104 36.7104 0 0 1 598.272 496.64l-77.824-77.824z m218.4192 336.0768l215.3984-245.4528a51.8656 51.8656 0 0 0-1.28-69.7344l-403.2-428.0832a51.8656 51.8656 0 0 0-75.52 0l-403.2512 428.032a51.8656 51.8656 0 0 0-1.2288 69.7856l215.3472 245.4528a51.8656 51.8656 0 0 0 39.0144 17.664h375.7056a51.8656 51.8656 0 0 0 39.0144-17.664z"  horiz-adv-x="1024" />
      
      <glyph glyph-name="biaoji-qizi" unicode="&#59119;" d="M363.84 800c70.656 2.176 123.712-24.96 168.64-46.08 45.696-21.632 84.096-37.76 135.296-30.976 27.392 3.648 62.912 15.232 93.056 26.88a906.432 906.432 0 0 1 47.488 19.84l3.456 1.6 0.192 0.128a32.128 32.128 0 0 0 45.632-28.992v-409.6a32 32 0 0 0-17.92-28.8h-0.128l-1.152-0.576-3.2-1.472c-2.752-1.28-6.72-3.136-11.648-5.312-9.856-4.48-23.68-10.432-39.488-16.64-30.976-12.16-72.704-26.24-108.544-30.208-75.52-8.32-129.92 27.584-174.336 56.064-46.336 29.696-82.688 51.84-132.864 46.336-27.008-3.008-62.08-14.464-92.16-26.24a817.088 817.088 0 0 1-47.36-20.224l-2.688-1.28-0.64-0.32-0.192-0.064a32 32 0 0 0-7.68-2.432V0a32 32 0 0 0-64 0V768a32 32 0 0 0 62.72 8.64l3.072 0.64c9.92 2.304 23.808 5.44 39.616 8.576 31.104 6.208 71.68 13.12 104.832 14.08z m1.92-64c-27.52-0.832-63.744-6.784-94.208-12.864a1235.456 1235.456 0 0 1-48.576-10.752l-2.944-0.768-0.64-0.192h-0.256c-0.448-0.128-1.024-0.064-1.536-0.192v-340.224c9.408 4.16 21.568 9.28 35.2 14.592 31.04 12.16 72.704 26.24 108.48 30.208 75.52 8.32 129.984-27.52 174.464-56.064 46.272-29.696 82.56-51.84 132.736-46.336 27.008 3.008 62.144 14.464 92.224 26.24 12.8 4.928 24.128 9.92 32.896 13.76V694.144c-3.2-1.28-6.4-2.816-9.792-4.096-30.976-11.904-72.32-25.856-107.584-30.528-71.296-9.536-124.736 14.592-171.072 36.48-47.104 22.208-86.4 41.6-139.392 40z"  horiz-adv-x="1024" />
      
      <glyph glyph-name="biaoji-qizi-1" unicode="&#59120;" d="M185.6 812.8a44.8 44.8 0 0 0 44.8-44.8v-768a44.8 44.8 0 0 0-89.6 0V768a44.8 44.8 0 0 0 44.8 44.8zM363.776 800c70.72 2.176 123.712-24.96 168.64-46.08 45.696-21.632 84.096-37.76 135.36-30.976 27.392 3.648 62.848 15.296 93.056 26.88 14.72 5.632 27.584 11.136 36.8 15.104l13.44 6.016 0.704 0.32 0.128 0.128a32.064 32.064 0 0 0 45.696-28.928v-409.6a32 32 0 0 0-14.08-26.56l-3.904-2.24-0.128-0.064-0.192-0.128-0.896-0.448-3.2-1.472c-2.752-1.28-6.72-3.136-11.648-5.312-9.856-4.48-23.68-10.432-39.552-16.64-30.976-12.096-72.64-26.24-108.48-30.208-75.52-8.32-129.92 27.584-174.4 56.064-46.336 29.696-82.56 51.84-132.736 46.336-13.312-1.472-29.056-5.12-45.632-9.984a32 32 0 0 0-41.152 30.72V762.944a32 32 0 0 0 27.392 31.68 494.72 494.72 0 0 0 54.784 5.312z"  horiz-adv-x="1024" />
      
      <glyph glyph-name="tushengxiangao" unicode="&#59118;" d="M916.48 174.784a32 32 0 0 0 32-32l0.128-94.912a96 96 0 0 0-96-96h-90.496a32 32 0 0 0 0 64h90.496a32 32 0 0 1 32 32l-0.064 94.912a32 32 0 0 0 32 32zM438.976 485.376a32 32 0 0 0 0-64H139.456v-191.744l103.36 114.432 5.12 4.672a32.128 32.128 0 0 0 43.52-5.952l74.24-91.776L430.72 304.64l4.288 3.072a32.064 32.064 0 0 0 34.048-1.28l144.448-98.112V311.04a32 32 0 0 0 64 0v-300.864a58.24 58.24 0 0 0-58.176-58.24H133.632a58.24 58.24 0 0 0-58.176 58.24V427.136a58.24 58.24 0 0 0 58.24 58.24h305.216z m-299.456-351.232v-118.272h473.984v115.072l-160.576 109.184-71.232-59.008a32.128 32.128 0 0 0-45.312 4.48L265.216 273.472l-125.76-139.328zM641.856 845.12c23.04 7.744 52.928 9.92 76.608-12.096 16-14.848 17.92-34.688 16.256-49.6a147.2 147.2 0 0 0-13.76-43.52c-12.8-27.52-33.664-60.16-52.16-89.984-19.328-31.36-36.48-60.16-45.76-83.84a95.36 95.36 0 0 1-6.272-21.888c4.16 2.56 9.6 6.4 16.32 12.16 22.784 19.776 49.792 50.88 79.424 84.8 28.416 32.512 59.52 67.84 87.936 90.88 14.08 11.392 30.272 22.208 47.36 27.072a60.352 60.352 0 0 0 51.968-7.552l6.848-5.632 5.44-5.632c24.96-29.056 16.448-67.712 6.144-94.208-11.968-30.72-33.472-64.128-53.76-93.696-20.672-30.08-39.68-55.616-52.864-76.8 7.68 2.432 16.064 5.824 24.704 9.92a366.464 366.464 0 0 1 43.328 24.768l2.624 1.792 0.704 0.448 0.064 0.064 5.696 3.2a32 32 0 0 0 30.976-55.68l-18.304 26.24 18.24-26.24-0.128-0.064-0.256-0.192-0.896-0.64a342.016 342.016 0 0 0-15.36-9.92c-9.92-6.144-23.808-14.08-39.04-21.44a222.72 222.72 0 0 0-50.432-17.92c-16.448-3.328-39.616-4.8-59.392 8.064a41.024 41.024 0 0 0-18.112 27.904 54.912 54.912 0 0 0 1.856 23.936 158.08 158.08 0 0 0 17.6 36.8c14.336 23.424 37.056 54.08 56.256 82.048 20.352 29.568 37.824 57.6 46.848 80.64 4.48 11.52 5.952 19.584 5.824 24.64 0 1.408-0.32 2.368-0.512 3.072a87.488 87.488 0 0 1-23.04-14.72c-23.296-18.944-50.624-49.6-80.128-83.264-28.224-32.32-58.688-67.648-85.76-91.008-13.312-11.52-28.608-22.72-44.8-28.16-17.792-6.08-40.512-5.952-58.496 11.84a66.944 66.944 0 0 0-19.136 49.92c0.256 16.192 4.992 32.704 10.88 47.744 11.776 30.08 32.192 63.808 51.008 94.208 19.712 31.808 37.76 60.16 48.512 83.328 3.904 8.448 5.952 14.912 7.104 19.52a43.52 43.52 0 0 1-7.68-1.92c-12.8-4.416-29.952-14.592-50.56-30.272-41.152-31.36-85.824-76.16-125.888-113.408a32 32 0 0 0-43.52 46.976c37.12 34.432 86.144 83.392 130.56 117.312 22.208 16.896 46.016 32.256 68.928 40z m-366.464-28.992a32 32 0 0 0 0-64H172.8a32 32 0 0 1-32-32v-128a32 32 0 0 0-64 0v128a96 96 0 0 0 96 96h102.592z"  horiz-adv-x="1024" />
      
      <glyph glyph-name="logo" unicode="&#59117;" d="M335.202462 815.379692L123.431385 896c-12.878769-32.964923-12.209231-64.866462 2.166153-95.704615 14.336-31.507692 37.966769-54.075077 70.931693-67.702154l36.627692-14.178462a59.352615 59.352615 0 0 1 76.563692 33.240616l25.481847 63.724307zM646.931692 537.757538L324.371692 47.261538h61.321846c110.040615 0 212.676923 55.453538 273.014154 147.495385l224.728616 342.961231h379.470769c20.755692 0 39.030154 6.065231 54.823385 18.274461 14.020923 11.460923 23.315692 56.910769 28.238769 80.856616l1.575384 7.719384 6.459077 32.256H933.691077L984.497231 872.369231H780.209231c-19.377231 0-35.131077-9.688615-47.300923-29.026462l-35.721846-166.478769h-217.16677c-11.421538 0-21.858462-3.584-31.15323-10.752a51.593846 51.593846 0 0 1-17.211077-27.963077l-12.642462-100.430769h227.879385zM987.372308 212.755692a207.675077 207.675077 0 0 1 203.342769-165.454769h47.655385l-78.769231 398.454154a55.532308 55.532308 0 0 1-20.440616 36.548923 61.243077 61.243077 0 0 1-39.778461 13.942154h-170.929231l58.88-283.490462zM93.892923 541.420308H19.731692l14.493539 95.507692c2.126769 10.752 7.168 19.692308 15.044923 26.899692 8.585846 7.168 18.628923 10.712615 30.089846 10.712616H332.012308L247.059692 68.292923a37.730462 37.730462 0 0 1 3.229539-23.630769c3.544615-7.876923 8.585846-14.336 15.044923-19.377231 5.750154-5.710769 12.524308-10.397538 20.440615-13.981538 7.876923-2.835692 15.36-4.292923 22.567385-4.292923l930.028308-2.481231S1216.984615-123.746462 1142.153846-123.746462H270.966154c-28.711385-0.118154-46.316308 32.059077-46.316308 32.059077s-14.454154-32.216615-46.395077-32.256H0L93.892923 541.420308zM1802.003692 772.608h-70.419692l-14.926769-32.689231c-21.188923-38.203077-48.324923-57.304615-81.447385-57.304615h-153.009231l85.464616 176.915692c7.916308 13.666462 17.880615 20.48 29.774769 20.48h188.770462L1772.307692 852.401231h336.738462s-27.411692-61.124923-33.988923-68.608c-7.286154-8.270769-28.632615-11.185231-37.927385-11.185231h-42.417231l14.92677-89.993846h-140.091077c-31.783385 0-52.657231 19.101538-62.621539 57.265231l-4.923077 32.728615zM2429.873231 772.608h-91.293539l-13.902769-29.656615c-22.528-40.211692-51.357538-60.337231-86.449231-60.337231h-150.016l84.440616 173.843692c8.625231 15.714462 19.889231 23.552 33.792 23.552h185.77723l-12.918153-27.608615h335.79323s-28.278154-59.352615-36.864-67.505231c-8.625231-8.192-18.550154-12.288-29.814153-12.288h-32.768l15.872-89.993846H2489.501538c-26.505846 0-43.716923 15.675077-51.672615 47.025231l-7.916308 42.968615zM1869.233231 188.219077H1453.804308c-12.760615 0-24.103385-4.529231-34.067693-13.508923-9.216-8.349538-14.887385-19.456-17.014153-33.319385l-7.483077-53.051077H1854.227692l-13.824-97.752615c-2.126769-18.747077-1.063385-35.367385 3.190154-49.939692s11.342769-27.057231 21.267692-37.415385c9.255385-10.436923 20.637538-18.392615 34.107077-23.945846 13.469538-4.844308 28.041846-7.286154 43.638154-7.286154h629.366154c-1.457231 46.316308-24.969846 83.219692-38.478769 99.170462-12.760615 15.241846-39.384615 25.757538-59.943385 25.757538h-392.507077c-12.760615 0-21.976615 3.820308-27.687384 11.421538-4.962462 6.971077-6.695385 16.344615-5.316923 28.120616l8.861538 51.869538h472.457846c20.598154 0 38.321231 6.971077 53.248 20.834462a82.313846 82.313846 0 0 1 27.687385 51.987692l4.253538 27.057231H2071.158154l18.628923 124.849231H2515.495385c27.687385 0 51.790769 9.334154 72.388923 28.041846 20.598154 18.747077 33.004308 42.653538 37.257846 71.798154H2104.556308l12.681846 86.331077H2565.907692c27.687385 0 51.475692 9.019077 71.364923 27.017846 20.558769 18.747077 33.358769 42.653538 38.321231 71.798154H1523.712a57.895385 57.895385 0 0 1-40.448-15.596308c-11.342769-9.728-18.116923-22.567385-20.243692-38.518154l-6.380308-44.701538h458.594462l-12.8-86.331077h-394.633847c-13.508923 0-25.206154-4.529231-35.170461-13.548308a58.289231 58.289231 0 0 1-17.014154-33.28l-7.483077-53.051077h439.532308l-18.432-124.849231z"  horiz-adv-x="2717" />
      
      <glyph glyph-name="dingshi" unicode="&#59116;" d="M511.68 841.6A457.28 457.28 0 1 0 54.4 384.32a30.72 30.72 0 0 0 61.44 0 395.776 395.776 0 1 1 395.84 395.776c-41.344 0-81.088-6.272-118.464-17.92a30.72 30.72 0 0 0-18.432 58.56A457.152 457.152 0 0 0 511.744 841.6zM480 606.72a30.72 30.72 0 0 0 30.72-30.72v-193.28H704a30.72 30.72 0 0 0 0-61.44H480a30.72 30.72 0 0 0-30.72 30.72V576a30.72 30.72 0 0 0 30.72 30.72zM189.248 762.112a11.2 11.2 0 0 0 21.184 0l25.536-75.776a11.2 11.2 0 0 1 6.4-6.784l71.68-29.184a11.2 11.2 0 0 0 0-20.736l-71.68-29.184a11.2 11.2 0 0 1-6.4-6.784l-25.536-75.776a11.2 11.2 0 0 0-21.184 0l-25.472 75.776a11.2 11.2 0 0 1-6.4 6.784l-71.744 29.184a11.2 11.2 0 0 0 0 20.736l71.744 29.184a11.2 11.2 0 0 1 6.4 6.784l25.472 75.776z"  horiz-adv-x="1024" />
      
      <glyph glyph-name="shujiyingyin" unicode="&#59114;" d="M691.2 825.6c74.24 0 134.336-60.16 134.4-134.4v-44.8h96a32 32 0 0 0 25.024-52.032L860.224 486.4l86.4-108.032a32.064 32.064 0 0 0-24.96-51.968h-96.128v-249.6a134.4 134.4 0 0 0-134.4-134.4H204.8a134.4 134.4 0 0 0-134.4 134.4V691.2c0.064 74.24 60.224 134.4 134.4 134.4h486.4z m-19.2-499.2v-121.6a83.2 83.2 0 0 0-83.2-83.2H179.2c-24.704 0-44.8-20.096-44.8-44.8a70.4 70.4 0 0 1 70.4-70.4h486.4a70.4 70.4 0 0 1 70.4 70.4V326.4h-89.6zM204.8 761.6a70.4 70.4 0 0 1-70.4-70.4v-515.328c13.632 6.208 28.8 9.728 44.8 9.728h409.6a19.2 19.2 0 0 1 19.2 19.2V761.6H204.8z m467.2-371.2h183.04l-60.8 75.968a32 32 0 0 0 0 40l60.8 76.032H672v-192z m0 256h89.6v44.8a70.4 70.4 0 0 1-70.4 70.4h-19.2v-115.2z"  horiz-adv-x="1024" />
      
      <glyph glyph-name="shiwu" unicode="&#59113;" d="M869.44 134.4c18.176 0 32.96-14.848 33.024-33.024 0-73.6-59.776-133.376-133.376-133.376H254.976A133.376 133.376 0 0 0 121.6 101.376c0 18.24 14.784 33.024 33.024 33.024h714.816z m-676.48-64c11.456-22.72 34.88-38.4 62.08-38.4h514.048c27.136 0 50.56 15.616 61.952 38.4h-638.08z m664.576 320a96 96 0 0 0 0-192H166.4a96 96 0 0 0 0 192h691.2z m-691.2-64a32 32 0 0 1 0-64h691.2a32 32 0 0 1 0 64H166.4z m465.28 447.616a285.504 285.504 0 0 0 270.848-285.056c0-19.072-15.552-34.56-34.56-34.56H156.16a34.56 34.56 0 0 0-34.56 34.56A285.44 285.44 0 0 0 407.04 774.4H616.96l14.72-0.384z m-235.904-64A221.44 221.44 0 0 1 187.648 518.4h648.768a221.44 221.44 0 0 1-208 191.68l-11.52 0.32H407.04l-11.328-0.32zM384 614.4a25.6 25.6 0 1 0 0-51.2 25.6 25.6 0 0 0 0 51.2z m307.2 0a25.6 25.6 0 1 0 0-51.2 25.6 25.6 0 0 0 0 51.2z m-153.6 51.2a25.6 25.6 0 1 0-0.064-51.2 25.6 25.6 0 0 0 0.064 51.2z"  horiz-adv-x="1024" />
      
      <glyph glyph-name="yunjisuan" unicode="&#59102;" d="M443.52 832c101.248 0 188.608-56.064 229.44-137.152a227.2 227.2 0 0 0 52.096 6.08c120.704 0 218.56-94.208 218.56-210.368 0-112.64-92.032-204.608-207.616-210.048l-2.56-0.064a230.528 230.528 0 0 0-16.832 0h-40.704v-172.288h42.368a96 96 0 1 0-3.52-38.4h-58.112a19.2 19.2 0 0 0-19.2 19.2V280.512h-59.968v-262.528a19.2 19.2 0 0 0-19.2-19.2h-47.68a95.936 95.936 0 1 0-1.28 38.464h29.824v243.2H421.76v-131.328a19.2 19.2 0 0 0-19.2-19.2h-83.2a96 96 0 1 0-3.52 38.4H383.36V280.448h-106.88a214.656 214.656 0 0 0-10.432-0.256C154.496 280.192 64 367.04 64 474.112c0 84.48 56.384 156.224 135.04 182.848C229.12 757.952 327.04 832 443.52 832zM416 72.448a57.6 57.6 0 1 1 0-115.264 57.6 57.6 0 0 1 0 115.2z m394.112 65.536a57.6 57.6 0 1 1 0-115.264 57.6 57.6 0 0 1 0 115.264zM224 198.08a57.6 57.6 0 1 1 0-115.328 57.6 57.6 0 0 1 0 115.328zM443.52 768c-89.344 0-161.536-56.64-183.232-129.28l-9.408-31.808-31.36-10.624C164.608 577.728 128 528.896 128 474.112c0-69.248 59.328-129.92 138.112-129.92 2.56 0 4.928 0.064 7.296 0.192h445.504a164.032 164.032 0 0 1 12.288 0H732.928c78.592 3.84 138.752 62.08 145.92 132.032l0.768 14.144c0 78.528-66.88 146.368-154.56 146.368a163.2 163.2 0 0 1-37.44-4.352l-49.088-11.52-22.784 44.992C585.984 725.12 521.024 768 443.52 768z"  horiz-adv-x="1024" />
      
      <glyph glyph-name="qiye" unicode="&#59107;" d="M401.984 256a32 32 0 1 0 0-64h-128a32 32 0 0 0 0 64h128zM401.984 448a32 32 0 0 0 0-64h-128a32 32 0 1 0 0 64h128zM775.104 256a32 32 0 1 0 0-64h-128a32 32 0 0 0 0 64h128zM513.92 827.648a32 32 0 0 0 48.064-27.648v-174.336l337.216-214.656A32 32 0 0 0 913.92 384v-384H960a32 32 0 1 0 0-64H64a32 32 0 0 0 0 64h49.984V576a32 32 0 0 0 15.872 27.648l384 224zM177.92 557.696V0h320V744.32l-320-186.624z m384-557.696h288V366.464l-288 183.296V0z"  horiz-adv-x="1024" />
      
      <glyph glyph-name="yuhua" unicode="&#59100;" d="M565.504-22.144l4.16-31.744a445.056 445.056 0 0 0-115.328 0l4.16 31.744 4.16 31.744a381.696 381.696 0 0 1 98.688 0l4.16-31.744zM282.112 84.48c25.984-20.032 54.656-36.736 85.312-49.408l-24.448-59.136a441.28 441.28 0 0 0-99.84 57.728l39.04 50.752zM780.8 33.664c-30.336-23.296-63.872-42.88-99.84-57.728l-24.448 59.136c30.72 12.672 59.328 29.44 85.312 49.344l39.04-50.752zM163.008 239.488c12.736-30.72 29.44-59.328 49.344-85.312l-50.688-39.04a441.408 441.408 0 0 0-57.792 99.84l59.136 24.512zM920.064 215.04a441.28 441.28 0 0 0-57.728-99.84l-50.752 39.04c19.968 25.92 36.672 54.592 49.344 85.248l59.136-24.512zM512 620.8a236.8 236.8 0 1 0 0-473.6 236.8 236.8 0 0 0 0 473.6z m0-64a172.8 172.8 0 1 1 0-345.6 172.8 172.8 0 0 1 0 345.6zM105.792 437.504l31.808-4.16a382.016 382.016 0 0 1 0-98.688l-31.808-4.16-31.68-4.16a445.824 445.824 0 0 0 0 115.328l31.68-4.16zM949.888 441.664a446.016 446.016 0 0 0 0-115.328l-31.744 4.16-31.744 4.16a380.736 380.736 0 0 1 0 98.688l31.744 4.16 31.744 4.16zM212.352 613.888a377.216 377.216 0 0 1-49.344-85.312l-59.136 24.448a441.344 441.344 0 0 0 57.792 99.84l50.688-39.04zM862.336 652.864c23.296-30.4 42.88-63.872 57.728-99.84l-59.136-24.448a377.408 377.408 0 0 1-49.344 85.312l50.752 39.04zM367.424 732.992c-30.656-12.736-59.328-29.44-85.312-49.344l-39.04 50.688c30.464 23.36 64 42.88 99.84 57.792l24.512-59.136zM680.96 792.128a441.408 441.408 0 0 0 99.84-57.792l-39.04-50.688a377.216 377.216 0 0 1-85.248 49.344l24.512 59.136zM512 825.6c19.52 0 38.784-1.28 57.6-3.712l-4.096-31.68-4.16-31.808a381.632 381.632 0 0 1-98.688 0l-4.16 31.808-4.16 31.68C473.216 824.32 492.48 825.6 512 825.6z"  horiz-adv-x="1024" />
      
      <glyph glyph-name="renminbi-shoufei" unicode="&#59101;" d="M333.824 583.68a32 32 0 0 0 39.68 7.68l5.376-3.584L511.936 476.8l133.12 110.976a32.064 32.064 0 0 0 40.96-49.152L569.6 441.536h96l6.464-0.64a32 32 0 0 0 0-62.656l-6.4-0.64H544v-89.6h121.6a32 32 0 0 0 0-64H544V128a32 32 0 0 0-64 0v96H358.4a32 32 0 0 0 0 64h121.6V377.6H358.4a32 32 0 0 0 0 64h96L337.92 538.56l-4.544 4.608a32 32 0 0 0 0.448 40.448zM512 825.6a441.6 441.6 0 1 0-0.128-883.2A441.6 441.6 0 0 0 512 825.6z m0-64a377.6 377.6 0 1 1 0-755.136 377.6 377.6 0 0 1 0 755.2z"  horiz-adv-x="1024" />
      
      <glyph glyph-name="tianjiaorshanchu-mian1" unicode="&#59099;" d="M512 896a512 512 0 1 0 0-1024A512 512 0 0 0 512 896zM296.192 419.2a32 32 0 0 1 0-64h425.152a32 32 0 0 1 0 64H296.192z"  horiz-adv-x="1024" />
      
      <glyph glyph-name="lizhi" unicode="&#59098;" d="M822.144 238.272a30.848 30.848 0 0 0 42.624-42.624l-3.968-4.8-82.752-82.752 82.752-82.752 3.968-4.864a30.72 30.72 0 0 0-42.624-42.56l-4.8 3.968-82.816 82.752-80.64-80.64a30.784 30.784 0 0 0-43.456 43.456l80.64 80.64-80.64 80.64a30.72 30.72 0 0 0 43.52 43.52l80.64-80.64 82.752 82.688 4.8 3.968zM503.424 792.32A228.352 228.352 0 0 0 630.4 374.272c29.056-11.136 56.448-25.92 81.6-43.776a30.72 30.72 0 0 0-35.648-50.048 299.648 299.648 0 0 1-163.2 55.552c-3.2-0.128-6.4-0.32-9.6-0.32-4.48 0-8.832 0.192-13.184 0.448-165.888-6.528-300.8-150.272-300.8-329.728a30.848 30.848 0 0 0-61.504 0c0 168.768 102.528 314.048 247.424 368.576a228.352 228.352 0 0 0 128 417.344z m0-61.44a166.656 166.656 0 1 1-10.24-333.12l8.96 0.128c3.968 0 7.936-0.064 11.84-0.192a166.72 166.72 0 0 1-10.56 333.12z"  horiz-adv-x="1024" />
      
      <glyph glyph-name="tianjiadaoqiyetuku" unicode="&#59097;" d="M791.36 281.6c14.848 0 27.264-10.56 30.08-24.576l0.64-6.208v-123.84h115.584l6.208-0.64a30.784 30.784 0 0 0 0-60.224l-6.208-0.64h-115.52v-107.2a30.784 30.784 0 0 0-61.504 0v107.2H645.12a30.784 30.784 0 0 0 0 61.44h115.52V250.88l0.64 6.208a30.848 30.848 0 0 0 30.08 24.64zM853.312 594.752A83.2 83.2 0 0 0 928 512v-153.6a32 32 0 0 0-64 0V512a19.2 19.2 0 0 1-15.36 18.816L844.8 531.2H179.2a19.2 19.2 0 0 1-19.2-19.2v-418.752l121.92 156.8 4.48 4.736a32.064 32.064 0 0 0 41.792-0.256l88.576-76.992L561.152 425.6a32.128 32.128 0 0 0 50.304 6.528l102.4-102.4a32 32 0 0 0-45.312-45.184L595.52 357.632l-142.912-245.76-0.256-0.32-63.04-105.152H512l6.4-0.64a32 32 0 0 0 0-62.72l-6.4-0.64H179.2c-24.512 0-46.4 10.624-61.632 27.456a31.744 31.744 0 0 0-20.032 39.808A83.84 83.84 0 0 0 96 25.6V512a83.2 83.2 0 0 0 83.2 83.2h665.6l8.512-0.448zM174.08 7.232a18.88 18.88 0 0 1 5.12-0.832h135.488l68.992 115.072-72 62.656-137.6-176.896zM320 492.8a96 96 0 1 0 0-192 96 96 0 0 0 0 192z m0-64a32 32 0 1 1 0-64 32 32 0 0 1 0 64zM851.2 709.76a32.064 32.064 0 0 0 0-62.72l-6.4-0.64H179.2a32 32 0 0 0 0 64h665.6l6.4-0.64zM793.6 825.6a32 32 0 1 0 0-64H230.4a32 32 0 0 0 0 64h563.2z"  horiz-adv-x="1024" />
      
      <glyph glyph-name="dakaiyingyong" unicode="&#59096;" d="M864 768c8.192 0 15.552-3.2 21.248-8.256 0.448-0.384 1.024-0.64 1.408-1.088l1.92-2.368A32 32 0 0 0 896 736v-407.552a32 32 0 0 0-64 0V658.752L182.592 9.408a32 32 0 1 0-45.248 45.248L786.752 704H456.32a32 32 0 0 0 0 64H864z"  horiz-adv-x="1024" />
      
      <glyph glyph-name="shujuji-tupianji" unicode="&#59095;" d="M320 492.8a96 96 0 1 0 0-192 96 96 0 0 0 0 192z m0-64a32 32 0 1 1 0-64 32 32 0 0 1 0 64zM853.312 594.752A83.2 83.2 0 0 0 928 512v-486.4a83.2 83.2 0 0 0-83.2-83.2H179.2a83.2 83.2 0 0 0-83.2 83.2V512a83.2 83.2 0 0 0 83.2 83.2h665.6l8.512-0.448zM432 6.4h412.8a19.2 19.2 0 0 1 19.2 19.2v116.032l-148.032 169.088L432 6.4z m-252.352 0h164.864l92.928 99.712L358.4 185.152 179.648 6.4zM179.2 531.2a19.2 19.2 0 0 1-19.2-19.2v-434.752l175.744 175.808 5.12 4.096a32 32 0 0 0 40.128-4.096l100.16-100.16 212.224 227.328a32.128 32.128 0 0 0 47.488-0.768l123.136-140.672v273.28a19.2 19.2 0 0 1-15.36 18.752L844.8 531.2H179.2zM851.2 709.76a32.064 32.064 0 0 0 0-62.72l-6.4-0.64H179.2a32 32 0 0 0 0 64h665.6l6.4-0.64zM793.6 825.6a32 32 0 1 0 0-64H230.4a32 32 0 0 0 0 64h563.2z"  horiz-adv-x="1024" />
      
      <glyph glyph-name="biaojiyichang-1" unicode="&#59093;" d="M512-74.624a32 32 0 0 1 0 64 394.688 394.688 0 1 0 394.624 394.688 32 32 0 0 1 64 0A458.688 458.688 0 1 1 512-74.624zM512 316.608c16.96 0 30.72 13.824 30.72 30.72v256a30.72 30.72 0 0 1-61.44 0v-256c0-16.896 13.76-30.72 30.72-30.72zM863.36-26.496c27.648-21.184 66.24 5.76 55.936 39.04l-27.584 89.28 72.512 55.36a35.84 35.84 0 0 1-21.76 64.32h-87.68l-26.944 87.168-2.368 5.952a35.968 35.968 0 0 1-63.808 0l-2.368-5.952-26.88-87.168h-87.808a35.84 35.84 0 0 1-21.76-64.32l72.512-55.296-27.52-89.344c-10.304-33.28 28.224-60.16 56-39.04l69.76 53.376 69.76-53.376z m-48 101.12a35.84 35.84 0 0 1-43.52 0l-40.96-31.168 16.64 53.504a35.84 35.84 0 0 1-12.544 39.04l-44.928 34.304h53.632a35.84 35.84 0 0 1 34.24 25.28l15.616 50.56 15.68-50.56a35.84 35.84 0 0 1 34.24-25.28h53.696l-44.992-34.304a35.904 35.904 0 0 1-12.48-39.04l16.512-53.568-40.896 31.232zM512.128 146.24a51.2 51.2 0 1 1 0 102.4 51.2 51.2 0 0 1 0-102.4z"  horiz-adv-x="1024" />
      
      <glyph glyph-name="biaojiyichang" unicode="&#59094;" d="M512-74.624a32 32 0 0 1 0 64 394.688 394.688 0 1 0 394.624 394.688 32 32 0 0 1 64 0A458.688 458.688 0 1 1 512-74.624zM512 316.608c16.96 0 30.72 13.824 30.72 30.72v256a30.72 30.72 0 0 1-61.44 0v-256c0-16.896 13.76-30.72 30.72-30.72zM512.128 146.24a51.2 51.2 0 1 1 0 102.4 51.2 51.2 0 0 1 0-102.4zM955.84-41.472a32 32 0 0 1 45.248 45.312l-92.16 92.16 79.744 79.744a32 32 0 0 1-45.248 45.248l-79.808-79.744-79.744 79.744a32 32 0 1 1-45.248-45.248l79.744-79.744-92.16-92.16a32 32 0 0 1 45.248-45.312l92.16 92.224 92.16-92.16z"  horiz-adv-x="1024" />
      
      <glyph glyph-name="chenggongorshibai-mian" unicode="&#59091;" d="M512 896a512 512 0 1 0 0-1024A512 512 0 0 0 512 896z m224.32-380.16a32 32 0 0 1-40.128 4.992l-5.12-4.032-246.144-234.88-111.936 106.88-5.12 4.032a32 32 0 0 1-43.328-45.44l4.224-4.8 134.08-128 4.992-3.904a32 32 0 0 1 39.232 3.84l268.16 256a32 32 0 0 1 1.088 45.312z"  horiz-adv-x="1024" />
      
      <glyph glyph-name="tianjiaorshanchu-mian" unicode="&#59092;" d="M512 896a512 512 0 1 0 0-1024A512 512 0 0 0 512 896z m-3.2-264.128a32 32 0 0 1-31.36-25.6l-0.64-6.4v-180.608H296.192l-6.528-0.64a32 32 0 0 1 0-62.72l6.528-0.64H476.8v-180.608a32 32 0 0 1 64 0V355.2h180.608l6.464 0.64a32 32 0 0 1 0 62.72l-6.464 0.64H540.8V599.872l-0.64 6.4a32.064 32.064 0 0 1-31.36 25.6z"  horiz-adv-x="1024" />
      
      <glyph glyph-name="zhixian" unicode="&#59090;" d="M852.8 769.152a32 32 0 0 0 44.288-44.352l-4.032-5.056-716.8-716.8a32 32 0 0 0-45.248 45.248l716.8 716.8 4.992 4.16z"  horiz-adv-x="1024" />
      
      <glyph glyph-name="huabi-qianbi" unicode="&#59088;" d="M638.208 760.32c32 32 83.84 32 115.84 0l108.608-108.672c32-32 32-83.904 0-115.904l-470.592-470.656a30.848 30.848 0 0 0-10.752-6.912l-4.096-1.28-235.328-54.272a30.784 30.784 0 0 0-36.864 36.864l54.272 235.328 1.28 4.096a30.976 30.976 0 0 0 7.04 10.752L638.144 760.32zM176 73.6l133.312 30.72-102.592 102.656-30.72-133.44z m56.768 194.24l137.472-137.536 336.768 336.768-137.6 137.472-336.64-336.64zM710.592 716.8a20.544 20.544 0 0 1-28.992 0L612.864 648l137.6-137.536L819.2 579.264a20.48 20.48 0 0 1 0 28.928L710.656 716.8z"  horiz-adv-x="1024" />
      
      <glyph glyph-name="dingweicitu" unicode="&#59089;" d="M512 460.8a76.8 76.8 0 1 0 0-153.6 76.8 76.8 0 0 0 0 153.6zM512 825.6a32 32 0 0 0 32-32v-71.872a339.2 339.2 0 0 0 305.6-305.472h72.32a32 32 0 0 0 0-64h-72.32A339.2 339.2 0 0 0 544 46.4V-25.6a32.064 32.064 0 0 0-64 0v72.064a339.2 339.2 0 0 0-305.728 305.856h-71.68a32 32 0 0 0 0 64h71.744A339.264 339.264 0 0 0 480 721.728V793.6a32 32 0 0 0 32 32zM544 640a32 32 0 0 0-64 0V657.28a275.264 275.264 0 0 1-241.28-241.088h17.536a32 32 0 0 0 0-64H238.72A275.2 275.2 0 0 1 480 110.72V128a32 32 0 1 0 64 0v-17.28a275.2 275.2 0 0 1 241.28 241.536h-17.024a32 32 0 0 0 0 64h17.024A275.264 275.264 0 0 1 544 657.28V640z"  horiz-adv-x="1024" />
      
      <glyph glyph-name="changjing-zu" unicode="&#59087;" d="M756.992 337.92c14.784 0 27.264-10.496 30.08-24.512l0.64-6.208v-276.672l110.784 106.752 4.928 3.84a30.72 30.72 0 0 0 41.792-43.328l-4.096-4.736-162.944-157.184a30.784 30.784 0 0 0-42.624 0l-162.944 157.184-4.096 4.736a30.784 30.784 0 0 0 41.856 43.328l4.864-3.84 110.976-106.88V307.2c0 16.96 13.824 30.72 30.72 30.72zM910.464 798.464a30.72 30.72 0 0 0 24.512-30.08v-320.128a30.72 30.72 0 0 0-61.44 0v289.28H166.848v-706.624h289.28l6.208-0.64a30.72 30.72 0 0 0 0-60.16l-6.208-0.64h-320a30.784 30.784 0 0 0-30.784 30.72V768.32l0.64 6.208a30.784 30.784 0 0 0 30.08 24.576h768.128l6.272-0.64zM756.672 659.2a30.72 30.72 0 0 0 42.56-42.624l-3.968-4.8-507.136-507.136a30.72 30.72 0 0 0-43.392 43.456l507.072 507.136 4.864 3.904zM503.04 665.024a30.72 30.72 0 0 0 42.496-42.56l-3.84-4.8L282.24 358.272a30.848 30.848 0 0 0-43.52 0 30.848 30.848 0 0 0 0 43.52L498.24 661.12l4.864 3.904zM254.272 675.904a30.72 30.72 0 0 0 42.56-42.56l-3.904-4.8-21.44-21.44a30.72 30.72 0 0 0-43.456 43.456l21.44 21.44 4.8 3.904z"  horiz-adv-x="1024" />
      
      <glyph glyph-name="yidong" unicode="&#59086;" d="M512 213.312a32 32 0 0 0 32-32v-125.44l54.656 43.776 2.688 1.92a32 32 0 0 0 39.808-49.728l-2.496-2.176-106.688-85.312-1.28-0.896a32.768 32.768 0 0 0-11.328-5.12l-1.28-0.384-1.664-0.256a31.36 31.36 0 0 0-10.304 0.256l-1.6 0.384a31.872 31.872 0 0 0-11.328 5.184l-1.216 0.832-106.624 85.312a32 32 0 0 0 40 49.984l54.656-43.712v125.44a32 32 0 0 0 32 32zM179.84 513.152a32 32 0 0 0 49.728-39.808l-1.92-2.688-43.712-54.656h125.44a32 32 0 0 0 0-64h-125.44l43.712-54.656a32 32 0 0 0-49.984-40L92.352 363.968l-0.832 1.28a31.808 31.808 0 0 0-5.184 11.264l-0.384 1.6a32.448 32.448 0 0 0-0.256 10.304l0.256 1.6 0.32 1.28a31.744 31.744 0 0 0 5.184 11.392l0.896 1.28L177.664 510.72l2.176 2.496zM801.28 515.648a32.064 32.064 0 0 0 42.88-2.56l2.176-2.432 85.312-106.688 0.896-1.28a32.768 32.768 0 0 0 5.12-11.328l0.384-1.28 0.256-1.664a32.384 32.384 0 0 0 0-8.896 37.76 37.76 0 0 0-0.256-1.408l-0.384-1.6a31.872 31.872 0 0 0-5.184-11.328l-0.832-1.216-85.312-106.624a32 32 0 0 0-49.984 40l43.712 54.656h-125.44a32 32 0 0 0 0 64h125.44l-43.712 54.656-1.92 2.688a32 32 0 0 0 6.912 42.304zM512 448a64 64 0 1 0 0-128 64 64 0 0 0 0 128zM516.416 810.24l1.6-0.192 1.28-0.32a31.744 31.744 0 0 0 11.392-5.184l1.28-0.896L638.72 718.336l2.496-2.176a32.064 32.064 0 0 0-39.808-49.728l-2.688 1.92-54.656 43.712v-125.44a32 32 0 0 0-64 0v125.44l-54.656-43.712a32 32 0 0 0-40 49.92l106.624 85.376 1.28 0.832a31.808 31.808 0 0 0 11.264 5.184l1.6 0.384a32.256 32.256 0 0 0 10.304 0.256z"  horiz-adv-x="1024" />
      
      <glyph glyph-name="tukutianjiatuku-zu" unicode="&#59085;" d="M551.36 771.84a36.608 36.608 0 0 0 0-71.68L544 699.52H132.48v-458.24l126.336 303.104 2.24 4.544a36.608 36.608 0 0 0 62.784 0.192l80-133.312 41.152 61.632 5.184 6.272a36.672 36.672 0 0 0 51.072-0.64l73.088-73.152 4.736-5.76a36.544 36.544 0 0 0-50.624-50.624l-5.76 4.672-41.6 41.6-48.384-72.576a36.672 36.672 0 0 0-61.824 1.408L298.496 449.408l-155.008-372.096c-0.704-1.728-1.728-3.328-2.688-4.928h403.2l7.36-0.768a36.672 36.672 0 0 0 0-71.68l-7.36-0.704H131.968A72.576 72.576 0 0 0 59.52 71.68V700.032c0 40.064 32.448 72.512 72.512 72.576H544l7.36-0.768zM921.664 71.68a36.608 36.608 0 0 0 0-71.68l-7.36-0.704h-219.456a36.544 36.544 0 1 0 0 73.088h219.456l7.36-0.768zM921.664 246.656a36.608 36.608 0 0 0 0-71.68l-7.36-0.704h-219.456a36.544 36.544 0 1 0 0 73.152h219.456l7.36-0.768zM921.664 421.632a36.608 36.608 0 0 0 0-71.616l-7.36-0.768h-219.456a36.544 36.544 0 1 0 0 73.152h219.456l7.36-0.768zM921.664 596.672a36.608 36.608 0 0 0 0-71.68l-7.36-0.704h-219.456a36.544 36.544 0 1 0 0 73.088h219.456l7.36-0.704zM921.664 771.648a36.608 36.608 0 0 0 0-71.68l-7.36-0.704h-219.456a36.544 36.544 0 1 0 0 73.152h219.456l7.36-0.768z"  horiz-adv-x="1024" />
      
      <glyph glyph-name="shezhi" unicode="&#59084;" d="M512 544a160 160 0 1 0 0-320 160 160 0 0 0 0 320z m0-64a96 96 0 1 1 0-192.064 96 96 0 0 1 0 192zM740.224 799.744a32 32 0 0 0 23.36-15.616l224-384a32 32 0 0 0 0-32.256l-224-384a32 32 0 0 0-27.584-15.872h-448a32 32 0 0 0-27.648 15.872l-224 384a32 32 0 0 0 0 32.256l224 384 2.368 3.52A32 32 0 0 0 288 800h448l4.224-0.256zM100.992 384l205.376-352h411.2L922.88 384l-205.312 352H306.368L100.928 384z"  horiz-adv-x="1024" />
      
      <glyph glyph-name="jiarumoxingku" unicode="&#59083;" d="M474.368 823.424c28.16 11.264 60.288 9.472 87.168-5.632l308.736-173.696 11.392-7.424c24.96-18.944 40.128-48.64 40.128-80.64V384a29.76 29.76 0 0 0-59.392 0V546.56L543.936 353.152v-344.704l74.752 41.984 5.504 2.496a29.76 29.76 0 0 0 23.552-54.208l-86.208-48.512c-26.88-15.104-58.944-17.024-87.168-5.696l-11.84 5.696-308.736 173.696a100.928 100.928 0 0 0-51.456 87.936V556.096c0 36.48 19.648 70.144 51.456 88l308.736 173.696 11.84 5.632zM161.728 211.84c0-15.04 8.064-28.8 21.12-36.224l297.088-167.04V353.28L161.728 546.368v-334.464z m370.688 554.112a41.6 41.6 0 0 1-35.84 2.304l-4.928-2.304-295.04-165.952L512 408.704l315.392 191.424L532.416 766.08zM804.608 335.36c14.848 0 27.264-10.56 30.08-24.576l0.64-6.208v-123.84h115.52l6.144-0.64a30.784 30.784 0 0 0 0-60.288l-6.144-0.64h-115.52v-107.136a30.784 30.784 0 0 0-61.44 0v107.2h-115.648a30.784 30.784 0 0 0 0 61.44h115.584V304.64l0.64 6.208a30.784 30.784 0 0 0 30.08 24.576z"  horiz-adv-x="1024" />
      
      <glyph glyph-name="LORA" unicode="&#59082;" d="M298.24 539.328a32 32 0 0 1-33.28-54.656L480 353.28V128a32 32 0 0 1 64 0V353.28l215.04 131.456a32 32 0 1 1-33.28 54.656L512 408.704l-213.76 130.56zM474.368 823.616a76.8 76.8 0 0 0 75.264 0l332.8-187.2a76.8 76.8 0 0 0 39.168-66.944v-370.944a76.8 76.8 0 0 0-39.168-66.944l-332.8-187.2a76.8 76.8 0 0 0-75.264 0l-332.8 187.2a76.8 76.8 0 0 0-39.168 66.944V569.472a76.8 76.8 0 0 0 39.168 66.944l332.8 187.2z m43.904-55.808a12.8 12.8 0 0 1-12.544 0l-332.8-187.2a12.8 12.8 0 0 1-6.528-11.136v-370.944a12.8 12.8 0 0 1 6.528-11.2l332.8-187.2a12.8 12.8 0 0 1 12.544 0l332.8 187.2a12.8 12.8 0 0 1 6.528 11.2V569.472a12.8 12.8 0 0 1-6.528 11.136l-332.8 187.2z"  horiz-adv-x="1024" />
      
      <glyph glyph-name="gongzuoliu" unicode="&#59081;" d="M405.568 633.6a128 128 0 1 0 0 64H819.2a108.8 108.8 0 0 0 108.8-108.8v-128a108.8 108.8 0 0 0-108.8-108.8h-50.752l22.208-22.144a32 32 0 0 0-45.248-45.312l-76.8 76.8a32 32 0 0 0 0 45.312l76.8 76.8a32 32 0 1 0 45.248-45.312l-22.208-22.144h50.752a44.8 44.8 0 0 1 44.8 44.8v128a44.8 44.8 0 0 1-44.8 44.8H405.568zM345.6 665.6a64 64 0 1 1-128 0 64 64 0 0 1 128 0zM460.352 70.4l-22.144-22.144a32 32 0 1 1 45.248-45.248l76.8 76.8a32 32 0 0 1 0 45.248l-76.8 76.8a32 32 0 1 1-45.248-45.248l22.144-22.208H204.8a44.8 44.8 0 0 0-44.8 44.8v128a44.8 44.8 0 0 0 44.8 44.8h157.632a128 128 0 1 1 0 64H204.8a108.8 108.8 0 0 1-108.8-108.8v-128a108.8 108.8 0 0 1 108.8-108.8h255.552zM486.4 320a64 64 0 1 0 0 128 64 64 0 0 0 0-128zM870.4 102.4a128 128 0 1 0-256 0 128 128 0 0 0 256 0z m-64 0a64 64 0 1 1-128 0 64 64 0 0 1 128 0z"  horiz-adv-x="1024" />
      
      <glyph glyph-name="gaichicun" unicode="&#59080;" d="M179.2 736a19.2 19.2 0 0 1-19.2-19.2v-403.2h242.56a39.04 39.04 0 0 0 39.04-39.04v-242.56h403.2a19.2 19.2 0 0 1 19.2 19.2V384a32 32 0 0 0 64 0v-332.8a83.2 83.2 0 0 0-83.2-83.2H179.2a83.2 83.2 0 0 0-83.2 83.2V716.8a83.2 83.2 0 0 0 83.2 83.2H512a32 32 0 0 0 0-64H179.2z m-19.2-486.4v-198.4a19.2 19.2 0 0 1 19.2-19.2h198.4v217.6H160zM716.8 736h101.952L518.4 435.648V537.6a32 32 0 1 1-64 0v-172.16c0-21.568 17.472-39.04 39.04-39.04h172.16a32 32 0 0 1 0 64H563.648L864 690.752V588.8a32 32 0 0 1 64 0V760.96a39.04 39.04 0 0 1-39.04 39.04H716.8a32 32 0 0 1 0-64z"  horiz-adv-x="1024" />
      
      <glyph glyph-name="xiufu-banshou" unicode="&#59079;" d="M534.336 741.184A236.416 236.416 0 0 1 467.328 540.16L184.768 301.056a173.312 173.312 0 1 1 244.288-244.288l239.104 282.56a236.736 236.736 0 0 1 262.4 295.68 32 32 0 0 1-53.568 14.4l-73.28-73.216a70.4 70.4 0 1 0-99.52 99.52l73.216 73.28a32 32 0 0 1-14.4 53.504 236.736 236.736 0 0 1-228.672-61.312z m45.248-289.6A172.8 172.8 0 0 0 683.52 745.6l-24.576-24.576a134.4 134.4 0 1 1 190.08-190.08l24.576 24.576a172.8 172.8 0 0 0-294.016-104zM226.112 252.16l261.12 220.992c11.392-24.256 27.072-46.912 47.104-66.88 19.968-20.032 42.624-35.712 66.88-47.04L380.16 98.112a109.312 109.312 0 1 0-154.112 154.112zM237.568 776a9.728 9.728 0 0 0 18.24 0l30.784-83.2a9.728 9.728 0 0 1 5.76-5.76l83.2-30.72a9.728 9.728 0 0 0 0-18.368l-83.2-30.72a9.728 9.728 0 0 1-5.76-5.76l-30.72-83.2a9.728 9.728 0 0 0-18.304 0l-30.784 83.2a9.728 9.728 0 0 1-5.76 5.76l-83.2 30.72a9.728 9.728 0 0 0 0 18.304l83.2 30.784a9.728 9.728 0 0 1 5.76 5.76l30.72 83.2zM770.88 229.248a9.088 9.088 0 0 0 17.024 0l24.64-66.496c0.896-2.496 2.88-4.48 5.376-5.376l66.496-24.576a9.088 9.088 0 0 0 0-17.024l-66.56-24.64a9.088 9.088 0 0 1-5.312-5.376l-24.64-66.496a9.088 9.088 0 0 0-17.024 0l-24.576 66.56a9.088 9.088 0 0 1-5.376 5.312l-66.56 24.64a9.088 9.088 0 0 0 0 17.024l66.56 24.576a9.024 9.024 0 0 1 5.376 5.376l24.576 66.56z"  horiz-adv-x="1024" />
      
      <glyph glyph-name="renxiang" unicode="&#59078;" d="M374.208 352.64c14.08 0 25.6-11.52 25.6-25.6v-48.448a25.6 25.6 0 0 0-51.2 0v48.384c0 14.144 11.52 25.6 25.6 25.6zM672.256 327.04a25.6 25.6 0 0 1-51.2 0v-48.448a25.6 25.6 0 0 1 51.2 0v48.384zM522.048 349.568a25.6 25.6 0 0 0 13.12-33.728l-25.664-58.24 28.928-35.456a25.6 25.6 0 1 0-39.616-32.448l-38.912 47.552a25.6 25.6 0 0 0-3.584 26.56l32 72.64a25.6 25.6 0 0 0 33.728 13.12zM631.232 119.552a25.6 25.6 0 1 1-48.384 16.896c-5.248-15.04-23.168-31.04-71.808-31.04-48.384 0-67.456 18.112-71.68 30.72a25.6 25.6 0 1 1-48.64-16.256c14.592-43.52 62.656-65.664 120.32-65.664 57.344 0 104.192 19.712 120.192 65.344zM448 832a352 352 0 0 1-352-352v-171.328A128 128 0 0 1 192 96h29.952A288 288 0 0 1 480-64h64a288 288 0 0 1 258.048 160H832a128 128 0 0 1 96 212.672V480A352 352 0 0 1 576 832H448z m416-484.032A128.256 128.256 0 0 1 832 352v64a32 32 0 0 1-32 32c-75.584 0-117.312 15.104-143.04 31.168-19.328 12.032-29.76 23.936-41.344 37.056a380.608 380.608 0 0 1-16.96 18.432 32 32 0 0 1-45.312 0c-41.6-41.664-98.56-63.808-159.232-75.2C333.44 448 272.256 448 224 448a32 32 0 0 1-32-32v-64c-11.072 0-21.76-1.408-32-4.032V480A288 288 0 0 0 448 768h128a288 288 0 0 0 288-288v-132.032zM768 384.896V224A224 224 0 0 0 544 0h-64A224 224 0 0 0 256 224V384.128c43.52 0.384 96.512 2.432 149.888 12.416 57.344 10.752 117.44 31.104 167.616 70.528 12.16-13.184 28.608-29.12 49.536-42.24 33.28-20.736 78.464-36.224 144.96-39.936zM832 288a64 64 0 1 0 0-128h-7.104c4.608 20.608 7.104 41.984 7.104 64v64z m-640-64c0-22.016 2.496-43.392 7.168-64H192a64 64 0 1 0 0 128v-64z"  horiz-adv-x="1024" />
      
      <glyph glyph-name="regenerate" unicode="&#59075;" d="M889.6 384a32 32 0 1 1 64 0V742.4a32 32 0 0 1-64 0v-129.28A441.344 441.344 0 0 1 512 825.6c-43.008 0-84.544-6.144-123.904-17.664a32 32 0 1 1 17.92-61.44A377.6 377.6 0 0 0 889.6 384zM427.072 563.2a32 32 0 0 0 28.48-17.472l139.072-272.64a32 32 0 1 0-57.024-29.12L427.072 460.8l-110.528-216.768a32 32 0 1 0-57.024 29.056l139.008 272.704a32 32 0 0 0 28.544 17.472zM679.04 553.28a32 32 0 0 0 32-32v-262.784a32 32 0 1 0-64 0V521.28a32 32 0 0 0 32 32zM102.4 416a32 32 0 0 0 32-32 377.6 377.6 0 0 1 693.76-206.528 32 32 0 0 0 53.568-35.072A441.28 441.28 0 0 0 512-57.6c-160 0-300.16 85.12-377.6 212.48v-129.28a32 32 0 0 0-64 0V384a32 32 0 0 0 32 32zM210.432 762.112a11.2 11.2 0 0 1-21.184 0l-25.472-75.776a11.2 11.2 0 0 0-6.4-6.784l-71.744-29.184a11.2 11.2 0 0 1 0-20.736l71.68-29.184c3.072-1.28 5.376-3.712 6.4-6.784l25.536-75.776a11.2 11.2 0 0 1 21.12 0l25.6 75.776a11.2 11.2 0 0 0 6.336 6.784l71.744 29.184a11.2 11.2 0 0 1 0 20.736l-71.744 29.184a11.2 11.2 0 0 0-6.4 6.784l-25.472 75.776z"  horiz-adv-x="1024" />
      
      <glyph glyph-name="regenerate-center" unicode="&#59076;" d="M455.552 545.728a32 32 0 0 1-56.96 0l-139.072-272.64a32 32 0 1 1 56.96-29.12l110.592 216.768L537.6 243.968a32 32 0 1 1 56.96 29.056L455.616 545.728zM711.04 521.28a32 32 0 0 1-64 0v-262.784a32 32 0 1 1 64 0V521.28z"  horiz-adv-x="1024" />
      
      <glyph glyph-name="regenerate-circle" unicode="&#59077;" d="M921.6 352a32 32 0 0 0-32 32 377.6 377.6 0 0 1-483.584 362.56 32 32 0 0 0-17.92 61.44A441.728 441.728 0 0 0 512 825.6c160 0 300.16-85.12 377.6-212.48V742.4a32 32 0 1 0 64 0V384a32 32 0 0 0-32-32zM102.4 416a32 32 0 0 0 32-32 377.6 377.6 0 0 1 693.76-206.528 32 32 0 0 0 53.568-35.072A441.28 441.28 0 0 0 512-57.6c-160 0-300.16 85.12-377.6 212.48v-129.28a32 32 0 0 0-64 0V384a32 32 0 0 0 32 32zM210.432 762.112a11.2 11.2 0 0 1-21.184 0l-25.472-75.776a11.2 11.2 0 0 0-6.4-6.784l-71.744-29.184a11.2 11.2 0 0 1 0-20.736l71.68-29.184c3.072-1.28 5.376-3.712 6.4-6.784l25.536-75.776a11.2 11.2 0 0 1 21.12 0l25.6 75.776a11.2 11.2 0 0 0 6.336 6.784l71.744 29.184a11.2 11.2 0 0 1 0 20.736l-71.744 29.184a11.2 11.2 0 0 0-6.4 6.784l-25.472 75.776z"  horiz-adv-x="1024" />
      
      <glyph glyph-name="xingaoqing-sd" unicode="&#59072;" d="M862.72 718.912a10.88 10.88 0 0 1 6.144 6.592l24.832 75.2a10.88 10.88 0 0 0 20.672 0l24.832-75.2a10.88 10.88 0 0 1 6.144-6.592l70.4-29.184a10.88 10.88 0 0 0 0-20.096l-70.4-29.184a10.88 10.88 0 0 1-6.144-6.656l-24.832-75.2a10.88 10.88 0 0 0-20.672 0l-24.832 75.2a10.88 10.88 0 0 1-6.208 6.656l-70.4 29.184a10.88 10.88 0 0 0 0 20.096l70.4 29.184zM130.432 702.08a3.968 3.968 0 0 1-4.032-3.968v-628.224c0-2.24 1.792-4.032 4.032-4.032h763.2a4.032 4.032 0 0 1 3.968 4.032V484.48a32 32 0 0 0 64 0v-414.592c0-37.568-30.464-68.032-68.032-68.032H130.496a68.032 68.032 0 0 0-68.032 68.032V698.112c0 37.568 30.464 67.968 68.032 67.968H704a32 32 0 0 0 0-64H130.432zM351.36 544c-23.872 0-55.04-6.464-80.64-21.376-25.984-15.168-52.032-43.52-46.528-85.952 4.48-34.176 26.752-53.504 50.688-63.808 21.376-9.216 47.424-12.8 68.224-15.552l0.896-0.128c23.36-3.2 41.472-5.76 55.232-11.008 12.352-4.736 15.36-9.344 16.64-14.528 2.112-8.384-0.32-17.792-10.368-26.88a71.68 71.68 0 0 0-47.68-16.768c-25.216 0-41.6 3.2-53.44 9.024-11.072 5.504-21.12 14.72-30.912 32.576a32 32 0 1 1-56.128-30.784c14.72-26.816 33.472-46.72 58.752-59.2 24.512-12.032 52.096-15.616 81.728-15.616 34.688 0 67.584 12.288 90.752 33.408 23.552 21.376 38.272 53.696 29.44 89.536-8.064 32.832-32.256 49.92-55.872 59.008-21.056 8.064-46.016 11.456-66.24 14.208l-3.264 0.448c-23.232 3.136-40.32 5.76-52.48 11.008-9.92 4.288-11.776 7.936-12.48 13.312-0.96 7.168 1.6 14.464 15.36 22.4 14.208 8.32 33.92 12.672 48.256 12.672 30.528 0 49.792-6.464 60.032-25.728a32 32 0 0 1 56.448 30.144c-27.904 52.288-80.384 59.52-116.48 59.52zM576 544a32 32 0 0 1-32-32v-256a32 32 0 0 1 32-32h96c28.224 0 64.64 10.24 94.336 35.648 30.912 26.24 52.864 67.328 52.864 124.352 0 57.216-22.464 98.24-53.44 124.416A150.208 150.208 0 0 1 672 544H576z m32-256v192h64c13.632 0 34.944-5.632 52.48-20.48 16.256-13.76 30.72-36.736 30.72-75.52 0-39.04-14.272-61.952-30.336-75.648-17.216-14.656-38.4-20.352-52.864-20.352h-64z"  horiz-adv-x="1024" />
      
      <glyph glyph-name="xingaoqing-2k" unicode="&#59073;" d="M862.72 718.912a10.88 10.88 0 0 1 6.144 6.592l24.832 75.2a10.88 10.88 0 0 0 20.672 0l24.832-75.2a10.88 10.88 0 0 1 6.144-6.592l70.4-29.184a10.88 10.88 0 0 0 0-20.096l-70.4-29.184a10.88 10.88 0 0 1-6.144-6.656l-24.832-75.2a10.88 10.88 0 0 0-20.672 0l-24.832 75.2a10.88 10.88 0 0 1-6.208 6.656l-70.4 29.184a10.88 10.88 0 0 0 0 20.096l70.4 29.184zM130.432 702.08a3.968 3.968 0 0 1-4.032-3.968v-628.224c0-2.24 1.792-4.032 4.032-4.032h763.2a4.032 4.032 0 0 1 3.968 4.032V484.48a32 32 0 0 0 64 0v-414.592c0-37.568-30.464-68.032-68.032-68.032H130.496a68.032 68.032 0 0 0-68.032 68.032V698.112c0 37.568 30.464 67.968 68.032 67.968H704a32 32 0 0 0 0-64H130.432zM576 524.096a32 32 0 1 1-64 0v-280.192a32 32 0 1 1 64 0V333.056l52.864 48.192 100.288-154.752a32 32 0 1 1 53.76 34.816l-106.048 163.584 78.848 71.808a32 32 0 0 1-43.072 47.36L576 419.584V524.096zM287.488 446.592c3.2 17.472 9.28 26.24 15.168 31.104 6.016 4.864 15.808 8.832 32.704 8.832 15.232 0 28.032-4.928 36.672-12.544 8.064-7.232 14.464-18.624 14.464-36.736 0-6.528-3.904-17.088-17.536-32.64-13.12-15.104-31.36-30.4-51.584-46.464l-13.376-10.496c-15.488-12.16-31.616-24.704-44.288-36.416-8.32-7.68-16.64-16.192-23.04-25.344a64.256 64.256 0 0 1-12.672-36.416 32 32 0 0 1 32-32h162.496a32 32 0 1 1 0 64H323.456l18.368 14.464 15.296 12.032c20.352 16.128 42.752 34.624 60.096 54.528 16.832 19.328 33.28 44.8 33.28 74.752 0 35.2-13.312 64.384-35.84 84.48a118.464 118.464 0 0 1-79.296 28.8c-26.752 0-52.48-6.4-73.088-23.232-20.736-16.896-32.512-41.088-37.76-68.992a32 32 0 0 1 62.976-11.712z"  horiz-adv-x="1024" />
      
      <glyph glyph-name="xingaoqing-4k" unicode="&#59074;" d="M862.72 718.912a10.88 10.88 0 0 1 6.144 6.592l24.832 75.2a10.88 10.88 0 0 0 20.672 0l24.832-75.2a10.88 10.88 0 0 1 6.144-6.592l70.4-29.184a10.88 10.88 0 0 0 0-20.096l-70.4-29.184a10.88 10.88 0 0 1-6.144-6.656l-24.832-75.2a10.88 10.88 0 0 0-20.672 0l-24.832 75.2a10.88 10.88 0 0 1-6.208 6.656l-70.4 29.184a10.88 10.88 0 0 0 0 20.096l70.4 29.184zM130.432 702.08a3.968 3.968 0 0 1-4.032-3.968v-628.224c0-2.24 1.792-4.032 4.032-4.032h763.2a4.032 4.032 0 0 1 3.968 4.032V484.48a32 32 0 0 0 64 0v-414.592c0-37.568-30.464-68.032-68.032-68.032H130.496a68.032 68.032 0 0 0-68.032 68.032V698.112c0 37.568 30.464 67.968 68.032 67.968H704a32 32 0 0 0 0-64H130.432zM608 524.096a32 32 0 1 1-64 0v-280.192a32 32 0 1 1 64 0V333.056l52.864 48.192 100.288-154.752a32 32 0 1 1 53.76 34.816l-106.048 163.584 78.848 71.808a32 32 0 0 1-43.072 47.36L608 419.584V524.096zM428.288 520.448a32 32 0 0 1-58.752 17.6L229.248 325.056A32 32 0 0 1 256 275.456h108.288v-35.456a32 32 0 1 1 64 0v35.456h14.72a32 32 0 1 1 0 64h-14.72V520.448z m-64-106.752v-74.24h-48.896l48.896 74.24z"  horiz-adv-x="1024" />
      
      <glyph glyph-name="a-chicun16leixingzhankai" unicode="&#59070;" d="M896 736a32 32 0 0 0 0-64H128a32 32 0 0 0 0 64h768zM512 416a32 32 0 0 0 0-64H128a32 32 0 0 0 0 64h384zM896 96a32 32 0 0 0 0-64H128a32 32 0 0 0 0 64h768zM729.6 508.8a16 16 0 0 1-25.6-12.8v-224a16 16 0 0 1 25.6-12.8l149.312 112a16 16 0 0 1 0 25.6L729.6 508.8z"  horiz-adv-x="1024" />
      
      <glyph glyph-name="a-chicun16leixingshouqi" unicode="&#59071;" d="M128 736a32 32 0 0 1 0-64h768a32 32 0 0 1 0 64H128zM512 416a32 32 0 0 1 0-64h384a32 32 0 0 1 0 64H512zM128 96a32 32 0 0 1 0-64h768a32 32 0 0 1 0 64H128zM320 496v-224a16 16 0 0 0-25.6-12.8L145.088 371.2a16 16 0 0 0 0 25.6L294.4 508.8a16 16 0 0 0 25.6-12.8z"  horiz-adv-x="1024" />
      
      <glyph glyph-name="tianjia-green" unicode="&#59069;" d="M512-128c282.766222 0 512 229.233778 512 512S794.766222 896 512 896 0 666.766222 0 384s229.233778-512 512-512zM540.785778 599.893333a32 32 0 1 1-64 0v-180.622222h-180.622222a32 32 0 0 1 0-64h180.622222v-180.622222a32 32 0 0 1 64 0v180.622222h180.622222a32 32 0 1 1 0 64h-180.622222v180.622222z"  horiz-adv-x="1024" />
      
      <glyph glyph-name="add-flat" unicode="&#59068;" d="M1024 384A512 512 0 1 0 0 384a512 512 0 0 0 1024 0zM508.8 631.872a32 32 0 0 1-32-32v-180.608H296.192a32 32 0 0 1 0-64H476.8v-180.608a32 32 0 1 1 64 0V355.2h180.608a32 32 0 0 1 0 64H540.8V599.872a32 32 0 0 1-32 32z"  horiz-adv-x="1024" />
      
      <glyph glyph-name="zhuye" unicode="&#59067;" d="M525.12 737.408a19.2 19.2 0 0 1-26.24 0L124.288 386.24a32 32 0 0 0-43.776 46.72l374.592 351.168a83.2 83.2 0 0 0 113.792 0l374.592-351.168a32 32 0 0 0-43.776-46.72L525.12 737.408zM204.8 416a32 32 0 0 0 32-32v-358.4a19.2 19.2 0 0 1 19.2-19.2h96v224a83.2 83.2 0 0 0 83.2 83.2h153.6a83.2 83.2 0 0 0 83.2-83.2v-224H768a19.2 19.2 0 0 1 19.2 19.2V384a32 32 0 0 0 64 0v-358.4a83.2 83.2 0 0 0-83.2-83.2H256a83.2 83.2 0 0 0-83.2 83.2V384a32 32 0 0 0 32 32z m403.2-409.6v224a19.2 19.2 0 0 1-19.2 19.2H435.2a19.2 19.2 0 0 1-19.2-19.2v-224h192z"  horiz-adv-x="1024" />
      
      <glyph glyph-name="gongzuotai" unicode="&#59066;" d="M439.872 588.8a32 32 0 0 0 28.48-17.472l139.072-272.64a32 32 0 1 0-57.024-29.12L439.872 486.4 329.344 269.568a32 32 0 0 0-57.024 29.056l139.008 272.704a32 32 0 0 0 28.544 17.472zM691.84 578.88a32 32 0 0 0 32-32v-262.784a32 32 0 0 0-64 0V546.88a32 32 0 0 0 32 32zM153.6 774.4a83.2 83.2 0 0 1-83.2-83.2v-512a83.2 83.2 0 0 1 83.2-83.2h332.8v-64H204.8a32 32 0 0 1 0-64H768a32 32 0 0 1 0 64H550.4v64h320a83.2 83.2 0 0 1 83.2 83.2v512a83.2 83.2 0 0 1-83.2 83.2H153.6z m-19.2-83.2a19.2 19.2 0 0 0 19.2 19.2h716.8a19.2 19.2 0 0 0 19.2-19.2v-512a19.2 19.2 0 0 0-19.2-19.2H153.6a19.2 19.2 0 0 0-19.2 19.2v512z"  horiz-adv-x="1024" />
      
      <glyph glyph-name="moxing-lora" unicode="&#59064;" d="M210.112 560c-62.464 33.28-57.472 124.352 8.256 150.592l262.72 105.088a83.2 83.2 0 0 0 61.824 0l262.72-105.088c65.728-26.24 70.72-117.376 8.32-150.656L551.104 419.84a83.2 83.2 0 0 0-78.336 0L210.112 560z m32 91.2a19.2 19.2 0 0 1-1.92-34.752l262.784-140.16a19.2 19.2 0 0 1 18.048 0l262.784 140.16a19.2 19.2 0 0 1-1.92 34.752L519.04 756.288a19.2 19.2 0 0 1-14.208 0L242.112 651.2zM70.4 429.44a83.2 83.2 0 0 0 120.192 74.56l243.2-120.64c28.288-14.08 46.208-42.88 46.208-74.496v-277.504a83.2 83.2 0 0 0-120.192-74.56l-243.2 120.64a83.2 83.2 0 0 0-46.208 74.496V429.44z m91.712 17.216a19.2 19.2 0 0 1-27.712-17.216v-277.504a19.2 19.2 0 0 1 10.688-17.152l243.2-120.64a19.2 19.2 0 0 1 27.712 17.216V308.864a19.2 19.2 0 0 1-10.688 17.152l-243.2 120.64zM953.6 429.44a83.2 83.2 0 0 1-120.192 74.56l-243.2-120.64A83.2 83.2 0 0 1 544 308.864v-277.504a83.2 83.2 0 0 1 120.192-74.56l243.2 120.64a83.2 83.2 0 0 1 46.208 74.496V429.44z m-91.712 17.216a19.2 19.2 0 0 0 27.712-17.216v-277.504a19.2 19.2 0 0 0-10.688-17.152l-243.2-120.64a19.2 19.2 0 0 0-27.712 17.216V308.864a19.2 19.2 0 0 0 10.688 17.152l243.2 120.64z"  horiz-adv-x="1024" />
      
      <glyph glyph-name="dingzhi" unicode="&#59065;" d="M764.544 792.704a74.688 74.688 0 0 1-105.6 0L513.088 646.848 371.904 789.12a74.688 74.688 0 0 1-105.6 0.384L106.56 630.848a74.688 74.688 0 0 1-0.384-105.6l142.08-143.168-49.792-49.856a32 32 0 0 1-8.128-13.824L104.96 19.712a32 32 0 0 1 39.552-39.552l298.688 85.312a32 32 0 0 1 13.824 8.192l48.896 48.896 141.312-142.336c29.056-29.248 76.352-29.44 105.6-0.384l159.808 158.656c29.248 29.056 29.44 76.288 0.384 105.6l-142.272 143.232 146.752 146.816a74.624 74.624 0 0 1 0 105.6l-152.96 152.96z m-39.04-450.56l142.08-143.168a10.688 10.688 0 0 0 0-15.104l-159.808-158.592a10.688 10.688 0 0 0-15.104 0l-45.824 46.208 66.176 66.176a32 32 0 0 1-45.248 45.248l-65.984-66.048-50.56 50.944 174.272 174.272z m-432 85.184l-39.872 40.192L328.96 542.976a32 32 0 1 1-45.248 45.248L208.512 512.96l-56.96 57.344a10.688 10.688 0 0 0 0.064 15.104l159.808 158.656a10.688 10.688 0 0 0 15.104-0.064L467.84 601.6 293.568 427.328z m410.688 320.128a10.688 10.688 0 0 0 15.104 0l152.96-152.96a10.688 10.688 0 0 0 0-15.104l-47.232-47.232-169.28 166.848 48.448 48.448zM610.56 653.76l169.28-166.848-362.112-362.176-235.328-67.2 67.2 235.328 360.96 360.96z"  horiz-adv-x="1024" />
      
      <glyph glyph-name="a-chicun16" unicode="&#59054;" d="M352 678.912a160 160 0 1 0 320 0 160 160 0 0 0-320 0z m160 96a96 96 0 1 1 0-192 96 96 0 0 1 0 192zM307.2 484.48a134.4 134.4 0 0 1-134.4-134.4V262.4h-7.36c-52.864 0-88.96-53.376-69.376-102.4l68.288-170.688c11.328-28.352 38.784-46.912 69.312-46.912h556.672c30.528 0 57.984 18.56 69.312 46.912l68.224 170.688a74.688 74.688 0 0 1-69.312 102.4H851.2V350.08a134.4 134.4 0 0 1-134.4 134.4H307.2z m480-222.08H236.8V350.08a70.4 70.4 0 0 0 70.4 70.4h189.12L462.08 347.968a13.44 13.44 0 0 1-0.896-8.96c0.768-3.008 2.56-5.76 5.12-7.936l32.768-27.52a20.48 20.48 0 0 1 13.12-4.672 20.544 20.544 0 0 1 13.12 4.48l32.512 27.328a14.976 14.976 0 0 1 4.992 7.936 13.248 13.248 0 0 1-0.96 8.96L526.72 420.48H716.8a70.4 70.4 0 0 0 70.4-70.4V262.4z m-631.68-78.656a10.688 10.688 0 0 0 9.92 14.656h693.12c7.552 0 12.736-7.68 9.92-14.656l-68.288-170.624a10.688 10.688 0 0 0-9.856-6.72H233.6a10.688 10.688 0 0 0-9.856 6.72L155.52 183.68z"  horiz-adv-x="1024" />
      
      <glyph glyph-name="a-chicun16leibieyifu" unicode="&#59055;" d="M327.232 813.76a84.352 84.352 0 0 0 99.84-10.304l85.44-78.784a37.568 37.568 0 0 1 50.368 0l85.056 78.4a84.224 84.224 0 0 0 100.032 10.24l38.912-23.296c36.736-21.952 50.816-67.84 32.256-106.496l-89.408-185.856a118.4 118.4 0 0 1-2.688-97.024l117.12-281.408a92.352 92.352 0 0 0-46.208-118.912 600.704 600.704 0 0 0-260.224-57.984h-0.384a599.04 599.04 0 0 0-260.032 57.984 92.992 92.992 0 0 0-46.208 119.616l116.864 281.088a118.784 118.784 0 0 1-2.56 97.088L255.872 683.904a82.368 82.368 0 0 0 32.256 106.496l39.04 23.36z m32.64-55.04l-38.848-23.232a18.304 18.304 0 0 1-7.424-23.872l89.408-185.792c5.184-10.688 9.216-21.76 12.16-33.152a351.104 351.104 0 0 1 244.8 0c2.944 11.2 6.976 22.144 12.096 32.768l89.408 185.728a18.304 18.304 0 0 1-7.424 23.936l-39.04 23.36s0.064 0 0 0a20.224 20.224 0 0 1-23.68-2.432l-85.12-78.4a101.568 101.568 0 0 0-137.088 0l-85.376 78.72a20.352 20.352 0 0 1-23.808 2.368z m295.488-334.976a415.168 415.168 0 0 0-235.712 0c-2.048-16.064-6.208-32-12.544-47.296L290.176 95.36a28.992 28.992 0 0 1 14.72-37.248 535.04 535.04 0 0 1 232.448-51.776h0.384c82.56 0 160.768 17.472 232.832 51.776h0.128a28.352 28.352 0 0 1 14.336 36.544l-117.056 281.408c-6.4 15.36-10.624 31.424-12.608 47.68z"  horiz-adv-x="1024" />
      
      <glyph glyph-name="a-chicun16leibiegengduo-qita" unicode="&#59056;" d="M117.312 384a394.688 394.688 0 0 0 601.408 336.256 32 32 0 0 1 33.536 54.528 458.688 458.688 0 1 1 163.136-172.352 32 32 0 1 1-56.256-30.528A394.688 394.688 0 1 0 117.312 384zM320 320a53.312 53.312 0 1 1 0 106.688A53.312 53.312 0 0 1 320 320zM565.312 373.312a53.312 53.312 0 1 0-106.624 0 53.312 53.312 0 0 0 106.624 0zM704 320a53.312 53.312 0 1 1 0 106.688A53.312 53.312 0 0 1 704 320z"  horiz-adv-x="1024" />
      
      <glyph glyph-name="a-chicun16leibieshangpin" unicode="&#59057;" d="M309.312 629.312V704c0 64.768 52.544 117.312 117.376 117.312h170.624c64.832 0 117.376-52.48 117.376-117.312v-74.688h59.008c61.632 0 112.768-47.744 117.056-109.248l30.912-448a117.312 117.312 0 0 0-117.12-125.44H219.456c-67.968 0-121.728 57.6-117.056 125.44l30.912 448a117.312 117.312 0 0 0 117.12 109.248h58.944z m64 74.688v-74.688h277.376V704a53.312 53.312 0 0 1-53.376 53.312H426.688A53.312 53.312 0 0 1 373.312 704z m-64-138.688h-59.008a53.312 53.312 0 0 1-53.184-49.664l-30.912-448a53.312 53.312 0 0 1 53.184-56.96h585.216a53.312 53.312 0 0 1 53.12 56.96l-30.848 448a53.312 53.312 0 0 1-53.184 49.664h-59.008v-74.624a32 32 0 1 0-64 0V565.312H373.312v-74.624a32 32 0 0 0-64 0V565.312z"  horiz-adv-x="1024" />
      
      <glyph glyph-name="a-chicun16leibiezuanshi" unicode="&#59058;" d="M207.04 784.128a32 32 0 0 0 27.648 15.872h554.624a32 32 0 0 0 27.648-15.872l149.376-256a32 32 0 0 0-3.072-36.608l-426.688-512a32 32 0 0 0-49.152 0l-426.688 512a32 32 0 0 0-3.072 36.608l149.376 256z m22.848-87.872L141.056 544h152.32l-63.488 152.32zM318.272 480H153.664l274.368-329.216L318.272 480z m277.76-329.216L870.272 480h-164.608l-109.76-329.216z m42.24 329.216H385.728L512 101.184 638.272 480z m92.416 64h152.32l-88.896 152.32-63.424-152.32z m10.624 192H571.776l104.32-156.48 65.28 156.48z m-118.4-192L512 710.336 401.152 544h221.696z m-275.008 35.52L452.224 736h-169.6l65.28-156.48z"  horiz-adv-x="1024" />
      
      <glyph glyph-name="jiadian" unicode="&#59059;" d="M469.312 298.688a42.688 42.688 0 1 1 0 85.312 42.688 42.688 0 0 1 0-85.312zM512 85.312A213.312 213.312 0 1 1 512 512a213.312 213.312 0 0 1 0-426.688z m0 64A149.312 149.312 0 1 0 512 448a149.312 149.312 0 0 0 0-298.688zM576 682.688a32 32 0 0 0 32 32h128a32 32 0 0 0 0-64h-128a32 32 0 0 0-32 32zM128 725.312v-682.624c0-47.168 38.208-85.376 85.312-85.376h597.376c47.104 0 85.312 38.208 85.312 85.376V725.312c0 47.168-38.208 85.376-85.312 85.376H213.312C166.208 810.688 128 772.48 128 725.312z m64-170.624h640v-512c0-11.776-9.6-21.376-21.312-21.376H213.312A21.312 21.312 0 0 0 192 42.688v512z m0 64V725.312c0 11.84 9.6 21.376 21.312 21.376h597.376c11.776 0 21.312-9.6 21.312-21.376v-106.624H192z"  horiz-adv-x="1024" />
      
      </font>
</defs>
</svg>
